#TITLE:Haruka Kanata Slipknot Remix;
#SUBTITLE:Bob Hope and his tramps;
#ARTIST:Dj Taka and Team AAA;
#TITLETRANSLIT:;
#SUBTITLETRANSLIT:;
#ARTISTTRANSLIT:;
#CREDIT:Fuck You!;
#BANNER:gai.png;
#BACKGROUND:bg.png;
#LYRICSPATH:Da Lyrics.lrc;
#CDTITLE:spinningthing.png;
#MUSIC:HarukaKanataSlipknotRemix.mp3;
#OFFSET:-1.302;
#SAMPLESTART:45.838;
#SAMPLELENGTH:12.000;
#SELECTABLE:YES;
#BPMS:0.000=1006.089,890.000=15.480,891.563=1364.669,1018.000=31.999,1020.438=1523.259,1144.000=1066.011,1144.500=873.592,1144.750=543.577,1145.000=492.778,1146.750=127.141,1155.000=661.155,1171.000=1684.850,1765.313=1133.197,2102.000=831.214,2103.000=8.541,2104.938=10.141,2104.938=1096.955,2105.188=1096.975,2105.375=1096.995,2105.688=3000.829,2219.250=192.260;
#STOPS:;
#BGCHANGES:;
// cache tags:
#FIRSTBEAT:0.063;
#LASTBEAT:2219.417;
#SONGFILENAME:Songs/Music V.I.P ^_^/Haruka Kanata Slipknot Remix/HarukaKanataSlipknotRemix.sm;
#HASMUSIC:1;
#HASBANNER:1;
#MUSICLENGTH:253.962;
// end cache tags

//---------------dance-single - ----------------
#NOTES:
     dance-single:
     :
     Easy:
     1:
     0.000,0.000,0.000,0.000,0.000,0.000,0.000,0.000,0.000,0.000:
0000
0000
0000
0000
;

//---------------dance-single - ----------------
#NOTES:
     dance-single:
     :
     Medium:
     1:
     0.000,0.000,0.000,0.000,0.000,0.000,0.000,0.000,0.000,0.000:
0000
0000
0000
0000
;

//---------------dance-single - HOLY FUCK----------------
#NOTES:
     dance-single:
     HOLY FUCK:
     Hard:
     15:
     1.000,1.000,1.000,1.000,1.000,8620.000,5991.000,4874.000,0.000,5644.000:
0000
1001
0000
0000
0000
0000
0000
0000
2200
3300
1100
1120
1130
1110
1110
1020
1130
1110
1102
0003
0001
2220
3330
1100
1000
0000
0000
2020
3030
0112
0003
0001
2200
3300
1100
0100
0100
0000
0000
1120
1130
1110
1110
1102
0003
0001
2200
3320
1030
0012
0003
0001
0001
0000
0000
2220
3330
1110
1110
0110
0110
0100
0000
0000
,
0001
0201
0300
0120
1130
1110
2100
3000
2020
3200
1330
1110
1100
0102
0003
0001
0001
2200
3320
1130
1110
1110
0110
2220
3330
0110
0100
0000
0002
2023
3030
1100
1112
0003
2000
3220
1330
1110
1110
1112
0003
0001
0001
2000
3020
1030
1122
1133
0000
0000
0000
0000
0000
0110
0100
0102
0103
0001
0000
2220
3330
1110
0110
0002
,
0003
0001
2220
3330
0100
2200
3320
1130
1100
0100
0002
0003
0000
2200
3320
0132
0003
0000
0000
0220
0330
0112
0003
0001
0220
0330
0002
0003
0000
2220
3332
0013
0000
0220
0332
0223
2000
3330
2200
3320
2130
3110
0110
0001
0001
0000
2200
3302
0003
0001
0000
2022
3033
0000
0000
2110
3000
0000
1111
0000
0000
0000
0000
0000
,
1111
0000
0000
0000
0111
0000
0000
1111
1111
1111
0000
0000
0000
0000
0000
0000
0000
1110
1111
1111
1111
0000
0000
0000
0000
0000
0000
0000
1120
1130
1110
1110
1112
0013
0001
0001
2000
3200
2020
3330
0112
0003
0001
0000
0020
0030
0002
0003
2220
3302
0033
0001
2200
3322
2033
3001
0000
1200
0320
1130
0012
0003
2200
3320
,
1130
1110
1100
0002
0003
2000
3000
1020
1132
0013
0001
0001
0011
1111
0111
0111
1111
0001
0200
0300
0100
1120
1130
1112
0003
0001
0000
2000
3020
1030
1112
1113
0101
0001
0001
2021
3031
0001
2200
3300
1112
1000
0003
0001
0221
0330
0110
0001
2201
3320
1130
1112
0003
2202
3300
1103
0000
0000
0000
0000
2000
3000
1000
1110
,
0110
1112
0003
2001
3220
0330
1112
0003
2201
3320
1130
0002
0003
0200
0300
1102
0003
0002
2003
3200
1320
1130
1110
1110
0002
0003
2001
3220
1330
1112
0003
0000
2200
3320
1130
0102
2003
3200
1320
1132
2013
3001
2200
3300
1220
1330
1110
1110
1110
1110
1112
1110
0003
0001
0000
2200
3320
1130
1110
0002
0003
2201
3320
1130
,
1112
0003
0000
2020
3230
1310
0112
2213
3300
0002
2203
3300
1120
1130
1120
1130
1100
1100
0100
1100
0120
1130
0020
0130
1110
1110
1112
0013
1110
0110
1100
1000
0020
1030
1000
2220
3330
1112
0013
0000
2200
3320
1130
1120
1130
0110
0112
0003
0001
0001
0000
2220
3330
1110
1110
1110
0110
0110
1110
0112
0003
0000
0000
2000
,
3220
1330
1110
1110
2010
3010
0000
0000
0000
0001
2000
3200
1300
1120
1130
0220
0330
1110
0110
1110
1102
0103
2220
3330
1000
1100
1100
1100
1100
1100
1100
1002
0003
0021
0031
2210
3310
1120
1030
0010
2220
3330
1110
1110
0110
0110
0110
0000
2000
3000
1220
1330
0112
0003
0001
0001
0000
2200
3300
1100
1100
1100
1220
1300
,
1130
0002
0003
0220
0330
1112
1103
2001
3001
0001
2220
3330
1110
0110
0000
0000
0001
0220
0330
1120
1130
1102
0013
2001
3000
2000
3200
0320
1130
1110
2110
3012
0003
0200
0300
0000
1200
1320
1130
1110
0112
0003
2201
3300
1120
1130
0012
2213
3300
1022
0133
0001
2200
3320
0132
0003
0200
2000
3000
1002
0003
2000
3300
1020
,
0032
0013
0001
0001
2021
3030
0110
1110
2000
3222
2333
3122
2033
3021
1230
0312
0113
0211
0022
2003
3300
2230
3320
1100
1102
2203
3330
1200
2002
3300
2203
3300
1202
2003
3302
2003
0001
0001
0000
3220
2330
0112
0213
3300
2000
0220
0032
0313
0111
0010
0012
0013
3001
1000
2000
0222
3333
0001
0001
0000
0000
0100
0002
2223
,
3331
2211
0311
0111
3111
0100
0000
0000
1111
0100
0000
0000
1000
1000
1111
1110
1110
0000
0000
0000
0000
0000
0002
0103
1112
1113
2200
3300
0002
2023
3030
1112
1113
1110
0110
2100
3001
0000
0000
0010
1110
1000
0000
0000
1102
0103
0000
0000
2011
0010
3000
0000
0000
1010
1101
0000
1110
1111
1011
1011
1011
1011
1011
0111
,
0011
0111
0111
0011
0111
0111
0112
1113
0110
0000
0112
0013
0000
1000
0200
0300
0002
0003
1101
0010
1101
0000
1110
0000
0111
0201
0300
0011
0200
1300
1020
0130
0100
0021
2030
3220
0332
0213
2300
3000
0021
2030
3200
0312
0013
2000
3100
1010
1111
0100
1111
1010
1101
0100
0020
1130
1100
2110
3001
1000
0001
1120
0031
2010
,
3201
1302
0003
1111
1111
1011
1110
1111
0111
2011
3001
0210
0310
0001
1001
1020
2230
3310
0021
2231
3310
0112
0003
1110
0010
0022
0033
0200
0310
1000
0000
2200
3320
0032
0003
0011
0011
0112
0110
2003
3110
2000
3000
0000
0002
1003
0220
0330
0020
0030
2000
3000
0000
0102
0003
1100
1010
1011
0000
0000
0000
0000
0000
0000
,
2110
0111
0111
0111
0011
0012
0013
0011
0111
0011
0111
0010
0020
0032
0113
0101
0000
0111
0111
0111
0211
0310
0111
0111
0110
0010
0100
0000
0010
0101
0111
0110
0100
0111
0101
0110
0001
0110
0110
0100
0111
0111
0001
0110
0111
0111
0111
0111
0011
0022
0033
0010
0111
0001
0011
0111
0110
0100
0101
0001
0101
0101
0100
0110
,
0110
0011
0011
0011
0011
0110
0100
0101
0001
0011
0111
0110
0111
0001
0011
0010
0010
0010
0110
0110
0100
0100
0200
0310
0110
0011
0011
0011
0011
0011
0011
0011
0020
0030
0110
0110
0110
0110
0001
0101
0111
0000
0110
0111
0010
0010
0111
0111
0111
0111
0010
0202
0303
0100
0111
0000
0000
0200
0300
0100
0222
0333
0111
0121
,
0131
0000
0000
0111
0000
0000
0111
0000
0000
0111
0000
0000
0111
0000
0000
0111
0000
0000
0111
0000
0000
0111
0000
0000
0101
0000
0000
0111
0000
0000
0111
0000
0000
0111
0000
0000
0111
0000
0000
0111
0000
0000
0000
0000
0000
0000
0000
0000
0222
0000
0000
0333
0000
0000
0111
0000
0000
0111
0000
0000
0111
0000
0000
0000
0000
0000
0000
0000
0000
0000
0000
0000
0000
0000
0000
0000
0000
0000
0101
0000
0000
0001
0000
0000
0010
0000
0000
0111
0000
0000
0000
0000
0000
0010
0000
0000
0101
0000
0000
0001
0000
0000
0110
0000
0000
0012
0000
0000
0213
0000
0000
0302
0000
0000
0113
0000
0000
0011
0000
0000
0000
0000
0000
0000
0000
0000
0010
0000
0000
0111
0000
0000
0101
0000
0000
0000
0000
0000
0000
0000
0000
0000
0000
0000
3000
0000
0000
0000
0000
0000
0000
0000
0000
0000
0000
0000
0002
0000
0000
0000
0203
0000
0000
0000
0320
0000
0000
0000
0030
0000
0000
0000
0000
0000
0000
0000
0000
0000
0000
0000
2100
0000
0000
0000
0000
0000
0000
0000
0020
0000
0000
0000
,
0002
0000
0000
0000
0000
0000
0000
0000
0000
0000
0000
0000
0000
0000
0000
0000
0000
0000
0000
0000
0000
0000
0000
0000
0233
0000
0000
0000
0000
0000
0000
0000
0000
0000
0000
0000
0000
0000
0000
0000
0000
0000
0000
0000
0000
0000
0000
0000
3000
0000
0000
0000
0300
0000
0000
0000
0000
0000
0000
0000
0000
0000
0000
0000
0000
0000
0010
0000
0000
0010
0000
0000
0020
0000
0000
0030
0000
0000
0000
0000
0000
0000
0000
0000
1100
0000
0000
0010
0000
0000
0110
0000
0000
0111
0000
0000
0110
0000
0000
0010
0000
0000
1000
0000
0000
2100
0000
0000
3000
0000
0000
0020
0000
0000
0030
0000
0000
0220
0000
0000
0332
0000
0000
2003
0000
0000
3000
0000
0000
1110
0000
0000
2101
0000
0000
3100
0000
0000
2210
0000
0000
3302
0000
0000
0203
0000
0000
0302
0000
0000
2103
0000
0000
3001
0000
0000
0010
0000
0000
0001
0000
0000
1020
0000
0000
0031
0000
0000
0100
0000
0000
0001
0000
0000
0020
0000
0000
1130
0000
0000
0111
0000
0000
1100
0000
0000
1120
0000
0000
1031
0000
0000
,
1100
1101
2110
3001
1100
0120
2130
3100
2200
0000
0000
0000
0000
0000
0001
0010
0001
0010
0001
0010
0001
0010
0001
0010
0001
0010
0001
0010
0001
0010
0001
0010
0021
0030
0011
0001
3310
0000
0000
0000
0000
1111
1111
0000
0000
0000
1111
0000
1110
1101
0000
0000
1100
0000
1110
1100
0000
1101
0001
0001
0001
1101
0110
0110
,
0001
0000
0000
0000
1000
0000
0000
0000
0000
1001
1001
1001
1001
0000
0100
0010
1001
1101
0000
0000
0020
0030
0000
0200
2000
3300
2200
3320
2200
3330
0000
0000
2000
3001
1100
0002
2200
3323
0231
0300
0020
0031
2001
3000
0200
0020
0330
0002
0000
0003
1011
0000
1101
1120
0030
2101
3200
0320
1031
0010
2100
3020
2031
3000
,
1120
0032
2103
3020
0031
1120
0030
2201
3320
0032
2223
3330
0001
1120
0032
2223
3330
0011
0001
0100
1100
0000
0000
0001
1000
0010
0011
0201
0310
0000
2210
3302
1003
0120
0032
1103
0010
1100
0000
0010
1010
0010
0001
0110
0000
0200
0310
1002
1003
0010
0010
0002
1103
0220
0330
0001
0001
2001
3020
0230
1320
1030
0002
0003
,
2000
0000
0000
3002
0000
0000
2023
0000
0000
3030
0000
0000
0210
0000
0000
0302
0000
0000
0003
0000
0000
2000
0000
0000
3200
0000
0000
0310
0000
0000
0002
0000
0000
2003
0000
0000
3200
0000
0000
0320
0000
0000
0032
0000
0000
2003
0000
0000
3200
0000
0000
0310
0000
0000
0001
0000
0000
1200
0000
0000
0320
0000
0000
0032
0000
0000
1003
0000
0000
0100
0000
0000
0010
0000
0000
0001
0000
0000
1200
0000
0000
0310
0000
0000
0001
0000
0000
0001
0000
0000
1100
0000
0000
0011
0000
0000
1000
0000
0000
0110
0000
0000
0001
0000
0000
1100
0000
0000
0010
0000
0000
0000
1001
0000
0000
0000
0000
0121
0000
0000
2230
0000
0000
3310
0000
0000
2001
0000
0000
3220
0000
0000
0330
0000
0000
0001
0000
0000
2100
0000
0000
3110
0000
0000
2202
0000
0000
0303
0000
0000
3012
0000
0000
0003
0000
0000
2201
0000
0000
3302
0000
0000
0003
0000
0000
0001
0000
0000
0001
0000
0000
0000
0000
0000
0000
0000
0000
1101
0000
0000
0100
0000
0000
0000
0000
0000
0200
0000
0000
0310
0000
0000
,
1111
0010
2001
3100
0002
1013
0001
1101
1111
0000
1110
1101
0002
0003
0010
0020
0030
1100
1112
0003
0000
1110
0000
1101
0000
1110
1111
1000
1100
0001
1000
0000
1110
0000
1011
0000
1110
0002
0103
1111
0000
1102
0123
0031
1020
0131
0101
1101
1101
1101
1110
0000
1101
0010
0010
1110
1110
1011
1110
0001
0000
1020
0130
1111
,
2110
3202
1303
2010
3001
1120
1131
0100
1100
0101
0111
2101
3010
2101
3010
1001
0001
0001
0001
0010
0010
0100
1100
1200
0300
0000
0001
0001
0120
0030
0010
0120
0030
0001
0002
1003
2010
3100
0012
2103
3010
1100
1002
2003
3010
0010
0002
2003
3000
0020
0130
0002
2003
3200
0300
0011
0000
2201
3300
0110
0000
0001
0010
1200
,
0310
2220
3330
0001
2100
3000
0020
0032
2103
3020
1130
0020
0031
1100
0000
0100
0211
2300
3000
0120
0031
2100
3020
0032
0003
0002
0223
0330
1000
2200
3310
2101
3000
0120
0031
1000
0010
0001
2110
3002
2103
3001
0110
0001
1000
0121
1030
0120
2031
3120
0031
2001
3120
2031
3120
0031
1200
0310
0001
1000
2001
3120
2031
3120
,
0031
1010
0001
1120
0031
1120
0031
1010
0000
1120
0030
0110
0000
0202
0303
0010
1110
1121
2231
3310
0002
1103
0000
1120
0030
1102
0213
0301
0120
0031
0001
0010
2001
3110
2101
3120
2131
3010
1120
0032
1123
2031
3110
2101
3020
0131
2010
3002
0023
0031
1020
0031
0110
1101
2001
3110
2101
3110
1101
2001
3020
1031
0001
0000
,
2000
3001
1110
1001
0101
0001
1111
1101
0101
0101
1011
1010
0110
0100
1100
0000
0111
1110
0000
2200
3020
0330
1101
1110
1101
1110
1101
0110
0001
0010
0001
0110
0111
0101
0010
0010
0001
0210
0301
0010
0011
0001
1120
2031
3000
0021
0030
1000
0200
0301
0110
1100
0000
0111
1010
2010
3000
0100
1111
1111
0001
1111
1111
1111
,
1120
0031
1110
1110
0101
0000
1110
0001
0010
0020
0030
2210
3300
0000
1101
0011
1110
0000
1110
0001
1220
0332
0103
0112
0003
0110
0011
1000
0101
0011
1000
0101
1111
0000
1110
0001
2000
3111
1111
1111
1111
1111
2111
3111
0111
1111
1111
0011
1111
1111
1111
1111
1111
1111
1111
1111
2111
0000
0000
0000
0200
0020
0300
0030
,
0200
0002
0003
0010
0300
0010
0000
0002
0203
0000
0020
0330
0022
0033
0002
0003
0000
0110
0020
0030
0000
0002
0003
0000
0020
0030
0200
0000
0300
0220
0330
0000
0020
0230
0300
0002
0003
0002
0003
0002
0003
0020
0030
0100
0002
0000
0200
0300
0000
0020
0030
0000
0100
0020
0030
0200
0300
0020
0030
0200
0300
0020
0030
0200
,
0300
3103
0000
0000
1111
1101
0000
1000
1100
2010
3010
0110
0001
0210
0300
0000
0000
0000
1120
0031
1111
0110
2100
3110
0201
1320
2230
3300
0000
0100
0000
0001
0120
0031
1100
0010
1100
0000
0111
1000
0120
1130
0010
0001
2100
3020
0031
2100
3010
0001
2200
3310
1100
0110
1120
0031
0001
0000
0120
1130
0010
0110
2110
3110
,
0011
2220
3331
1120
0031
1110
1111
0001
1120
0031
1100
0100
1011
0110
0001
1110
0001
1101
1110
1001
1010
1120
0031
1020
0031
1010
0001
1110
2001
3110
0001
1110
0001
1120
0031
1120
0031
1110
0001
1220
0331
1120
0031
1110
0001
1110
0001
1110
1110
0011
1111
1111
1111
1111
1111
1111
1111
1111
1111
1111
0100
1100
0000
1010
,
1100
0001
0112
2203
3301
0111
0001
0101
0000
1111
0101
1102
0003
0101
1010
2101
3201
1300
0202
1303
0000
1101
0110
0110
0120
0031
1000
0010
0012
2013
3111
1110
2200
3301
1010
0001
0102
1103
0001
1011
1101
2100
3011
1111
1010
0100
0001
0010
0100
0101
1110
2001
3001
2100
3001
0110
0002
1103
0121
2131
3020
2231
3300
1101
,
0001
2000
3021
0030
1101
0000
1111
2101
3210
1301
0101
2001
3200
0310
2201
3302
2103
3010
0002
2103
3020
0031
0000
1100
0020
0031
2210
3320
2232
3323
0032
2203
3310
2201
3310
2201
3320
0031
1120
2231
3310
0001
0010
2010
3001
0010
0010
0010
0010
0020
0032
1103
0000
0111
2210
3310
0001
1120
0031
1110
0001
1120
0031
1100
,
2200
3310
1100
2200
3302
1103
0020
1132
2023
3030
0001
0010
2201
3302
0023
0030
0010
2201
3310
0002
0223
0330
0102
1023
0032
1103
1100
0022
0033
0001
0000
0000
0001
1100
0120
1032
0203
2320
3132
2003
3210
1302
0023
2030
3100
0020
0032
2203
3300
0000
0001
2010
3201
0310
0010
0001
2210
3302
2003
3010
2000
3210
0300
0102
,
1103
1200
0320
1031
0010
2200
3300
0102
1103
1120
1031
2010
3010
2201
3312
0003
2210
3302
0003
0122
0033
0001
1000
0000
0100
2200
3300
1102
0123
0032
0003
0210
0310
0211
2310
3001
0000
0100
1202
1303
0000
2201
3310
0002
0203
0310
0010
2001
3000
0000
1100
0002
1123
0031
1200
0301
0001
0110
0001
1120
0032
1103
0000
1111
,
0120
0031
0110
0001
1100
0020
1132
0003
1100
2200
3302
1123
0031
1122
0033
2201
3310
0001
0100
0001
2201
3310
0001
1100
2220
3330
1112
1123
0131
0001
2210
3311
0010
0010
0002
0003
0000
1100
1101
0010
2001
3200
0301
1120
0031
1100
0101
2210
3301
1120
0032
1123
0031
1110
0001
1120
0031
1120
0031
1110
0001
1120
0031
1110
,
0001
1110
0001
1120
0032
1123
0031
1120
0031
1120
0031
1120
0031
2210
3300
1100
2200
3310
0002
2213
3300
0000
0000
2100
3100
0000
0001
1120
0030
0011
0100
1102
0123
0032
2203
3311
2200
3301
0002
2223
3332
1223
0332
1123
0031
1120
0031
1120
0030
0000
0002
0123
1130
0011
0102
2203
3300
2220
3331
1100
0001
0101
1101
0010
,
0001
1100
0020
0031
1101
0002
2203
3301
1120
0031
0001
1120
0031
0001
1120
0031
1121
0031
1101
2201
3302
0113
0001
1120
0031
1200
0310
2201
3320
0031
1120
0031
1220
0331
1120
0031
1020
0230
0300
0220
2330
3002
0003
2020
3030
0001
0110
0102
2203
3302
0123
0031
2120
3030
0001
1220
0331
1200
0310
0001
1220
0331
1200
0311
,
0001
1100
0000
0001
0200
0310
2100
3010
0002
0203
1320
0030
0002
2003
3000
0020
0030
2220
3332
0003
1111
0000
0000
2002
3023
0030
0011
2220
3331
1120
2131
3020
0032
1123
0032
2223
3332
2203
3310
2201
3310
0001
2202
3303
1120
0030
1100
0100
0102
0113
2220
3330
1120
1130
0000
0000
1110
2201
3300
0000
0000
0001
0200
0310
,
1101
2200
3300
1110
0010
0001
2120
3232
2023
3300
2231
0020
3330
0021
0200
2031
3301
0200
0021
0000
2330
3001
0020
0030
0000
0002
2203
3320
0030
2000
3011
0220
0030
0302
0000
0003
2200
3320
0030
0002
0003
0000
1110
0001
1010
0002
2203
3312
1103
0010
2001
3220
0330
0001
1120
0031
1120
0031
1120
0031
1120
0031
1120
0031
,
1100
0000
2201
3311
0000
0000
0000
0021
0032
2203
3300
0020
0030
1200
0300
0002
0203
0020
0300
0030
0002
1113
1111
0001
0110
0001
1110
0001
1120
0031
1100
0100
1120
0032
1223
0331
1220
0331
1220
0331
1120
0031
1010
0001
1120
0031
1120
0031
1120
0031
0110
0001
0100
0120
0032
2003
3110
0010
0120
0032
1103
0010
1220
0332
,
1123
0031
1110
0001
1120
0031
1120
0031
1120
0031
1110
0001
1120
0031
1110
0001
1120
0031
1120
0031
1110
0001
1120
0031
1110
0001
0110
0001
0100
1000
0110
0000
2210
3311
0120
0031
0120
0031
1120
1031
0000
0000
0000
0000
0000
0000
0000
0000
2000
0000
0000
0000
0000
0000
0000
0000
0000
0000
0000
0000
0000
0000
0000
0000
,
0000
0000
0000
0000
,
0000
0000
0000
0000
,
0000
0000
0000
0000
,
0000
0000
0000
0000
,
0000
0200
0000
0000
,
0000
0000
0000
0000
,
0000
0000
0000
0000
,
0000
0000
0000
0000
,
0000
0000
0000
0000
,
0000
0000
0000
0000
,
0000
0000
0000
0000
,
0000
0000
0000
0000
,
0000
0000
0000
0000
,
0000
0000
0000
0000
,
0000
0000
0000
0020
,
0000
0000
0000
0000
,
0000
0000
0000
0000
,
0000
0000
0000
0000
,
0000
0000
0000
0000
,
0000
0000
0000
0000
,
0000
0000
0000
0002
,
0000
0000
0000
0000
,
0000
0000
0000
0000
,
0000
0000
0000
0000
,
0000
0000
0000
0000
,
0000
0000
0000
0000
,
0000
0000
0000
0000
,
0000
0000
3333
2220
,
0000
0000
0000
0000
,
0032
0000
0000
0023
,
0000
0000
0032
0000
,
0000
0023
0000
0000
,
0032
0000
0000
0303
,
0000
0220
0000
0000
,
0032
0000
0000
0303
,
0000
0002
0000
0000
,
0000
0000
0203
0000
,
0000
0302
0000
0000
,
0023
0000
0000
0230
,
0000
0002
0000
0000
,
0023
0000
0000
0332
,
0000
0000
0023
3030
,
2000
0200
0000
0302
,
0000
0020
0000
0000
,
0000
0230
0000
0000
,
0000
0300
0000
0000
,
0000
0020
0000
0000
,
0000
0230
0000
0000
,
0000
0003
0300
3111
,
0111
1111
1101
1010
,
1101
0110
1100
0011
,
1100
0011
1001
0101
,
0111
1111
1111
1111
,
1111
1111
1111
1111
,
1111
1111
1111
1100
,
1100
1100
1000
1000
,
0000
0011
0011
0010
,
1011
1011
1011
1011
,
0011
1001
0020
1001
,
1001
1001
1001
1001
,
0201
0000
0000
0000
0001
2000
3000
0000
0001
1000
0000
0000
0001
1000
1000
0000
,
0001
0000
0000
1000
1001
0000
0000
0000
1001
0000
0000
1000
1031
1000
0000
0000
,
1310
0000
0000
0000
1000
0000
2110
3000
0120
1131
0010
0000
0000
0000
0000
0000
0000
0000
1111
0000
0000
0000
0000
0000
,
1111
1112
1013
0120
,
0130
0000
1110
0111
1111
0111
1111
1111
,
1110
0000
0000
0001
0000
0000
1010
0000
0000
0110
0000
0000
0101
0000
1110
0000
0001
0000
1120
0000
0031
0000
1100
0000
,
0000
0000
0000
0000
0220
0000
0000
0000
0001
0000
0000
0000
1001
0000
0000
0000
2031
0000
0000
0000
3311
0000
0000
0000
0000
0000
0000
0000
0000
0000
0000
0000
0000
0000
0000
0000
0200
0000
0000
0000
0000
0000
0000
0000
0000
0010
0000
0000
,
1011
0010
0010
0010
1011
0010
0000
0000
1301
0000
0000
0000
1111
0000
0000
0000
,
0110
0000
0000
0000
0000
0000
1111
0000
0000
0000
0000
0000
1011
0000
0000
0110
0000
0000
1111
0000
0111
0000
0110
0000
,
0001
0000
0000
0000
1100
0000
0000
0000
0001
0000
0000
0000
0001
0000
0000
0000
0110
0000
0000
0000
1111
0000
0000
0000
0111
0000
0000
0000
0000
0000
1111
0000
0000
0110
0000
0000
0001
0000
0000
1020
0000
0000
0031
0000
0000
1101
0000
0000
,
0010
1120
0031
1110
0001
1110
0001
1120
0031
1110
0001
0110
1001
0111
1100
0001
,
0110
0000
0000
2001
0000
0000
3110
0000
0000
0001
0000
0000
1100
0000
0110
0000
0000
0000
0000
0000
0000
0000
0000
0000
0012
0000
1013
0000
1021
0000
2031
0000
3010
0000
1001
0000
0000
0000
1100
0000
1100
0000
0000
0000
0010
0000
0001
0000
,
0100
0210
2300
3000
0002
2003
3210
0302
2203
3310
2001
3020
0032
0203
0310
2201
3310
2001
3110
0001
1220
0332
1123
0031
,
2220
0000
0000
0000
0000
0000
0000
0000
3332
0000
0000
0000
0000
0000
0000
0000
1223
0000
0000
0000
0000
0000
0000
0000
0332
0000
0000
0000
0000
0000
0000
0000
1123
0000
0000
0000
0000
0000
0000
0000
0032
0000
0000
0000
0000
0000
0000
0000
1123
0000
0000
0000
0000
0000
0000
0000
0031
0000
0000
0000
1110
0000
0000
0000
0000
0000
2210
0000
0000
0000
0000
0000
3301
0000
0000
0000
0000
0000
1120
0000
0000
0000
0000
0000
0032
0000
0000
0000
0000
0000
1123
0000
0000
0000
0000
0000
0032
0000
0000
0000
0000
0000
1223
0000
0000
0000
0000
0000
0331
0000
0000
0000
0000
0000
1120
0000
0000
0000
0000
0000
0031
0000
0000
0000
0000
0000
1110
0000
0000
0000
0000
0000
0001
0000
0000
0000
0000
0000
1110
0000
0000
0000
0000
0000
0001
0000
0000
0000
0000
0000
1120
0000
0000
0000
0000
0000
0031
0000
0000
0000
0000
0000
1120
0000
0000
0000
0000
0000
0031
0000
0000
0000
0000
0000
1120
0000
0000
0000
0000
0000
0032
0000
0000
0000
0000
0000
1123
0000
0000
0000
0000
0000
,
0030
0000
0000
0000
2210
0000
0000
0000
3302
0000
0000
0000
2223
0000
0000
0000
3332
0000
0000
0000
1123
0000
0000
0000
0030
0000
0000
0000
1100
0000
0000
0000
0200
0000
0000
0000
0300
0000
0000
0000
0100
0000
0000
0000
0000
0000
0000
0000
0101
0000
0000
0000
0000
0000
0000
0000
0000
0000
0000
0000
0000
0000
0000
0000
0000
0000
0000
0000
0000
0000
0000
0000
0000
0000
0000
0000
0000
0000
0000
0000
0000
0000
0000
0000
0000
0000
0000
0000
0000
0000
0000
0000
0000
0000
0000
0000
1101
0000
0000
0000
0000
0000
0000
0000
0000
0000
0000
0000
0000
0000
0000
0000
0000
0000
0000
0000
0000
0000
0000
0000
0000
0000
0000
0000
0000
0000
0000
0000
0000
0000
0000
0000
0000
0000
0000
0000
0000
0000
0000
0000
0000
0000
0000
0000
0111
0000
0000
0000
0000
0000
0000
0000
0000
0000
0000
0000
0000
0000
0000
0000
0000
0000
0000
0000
0000
0000
0000
0000
1110
0000
0000
0000
0000
0000
0110
0000
0000
0000
0000
0000
1110
0000
0000
0000
0000
0000
0001
0000
0000
0000
0000
0000
,
0001
1100
0010
1111
1101
1101
1111
2201
3300
2201
3310
0001
0020
0000
0000
0000
1001
0000
0000
0000
0000
0000
0000
0000
2030
0000
0000
0000
0000
0000
0000
0000
,
0011
3011
1020
0031
1000
0012
1003
1001
,
0001
0000
1111
1111
1111
1111
1111
1111
,
1111
1111
1111
1111
1111
1111
1111
1111
,
1111
1111
1111
1111
1111
1111
1111
1111
,
1111
0000
0000
1111
0000
0000
1111
0000
1111
0000
1111
0000
1111
0000
1111
0000
1111
0000
1111
0000
1111
0000
1111
0000
,
1111
1111
1111
1111
1111
1111
1111
1111
1111
1111
1111
1111
,
1111
1111
1111
1111
1111
1111
1111
1111
1111
1111
1111
1111
,
1111
1111
0001
1111
1111
1111
1111
1111
1111
1111
1111
1111
,
1111
1111
2110
0000
0111
0101
0001
0110
0011
0120
0031
0010
,
0010
0101
0100
0010
0001
0110
0011
0002
0023
0032
0023
0230
,
0300
0000
0001
0000
0110
0000
0210
0000
0300
0000
0200
0000
3300
0000
1100
0011
1100
0000
1112
0000
1100
0013
0000
0000
,
0001
1110
0112
1123
0031
1110
2201
3312
,
1113
2201
3320
0032
2223
3332
1103
0202
,
1323
0000
1132
0000
0003
0000
1100
0000
1100
0000
1110
0110
1111
0110
1011
0111
,
1111
0111
1110
1110
1111
1111
1111
1111
1111
1110
0110
1111
1111
1110
1110
1111
,
1110
0000
0000
1110
0000
0000
1111
0000
0000
1111
0000
0000
0111
0000
0000
1111
0000
0000
1110
0000
1110
0000
1110
0000
1111
0000
1011
0000
0110
0000
0111
0000
1111
0000
0001
0000
1110
0000
0001
0000
1110
0000
0001
0000
1120
0000
0031
0000
,
1220
0332
2223
3332
1123
0032
1123
0031
1120
0032
1123
0031
1120
0031
1120
0031
1120
0031
1120
0031
1120
0031
1120
0031
,
1120
0031
1220
0331
1120
0031
1110
0001
1220
0331
1120
0031
1120
0030
1022
0233
0301
1120
0031
1120
0031
1200
0322
1033
,
1000
0000
1100
0000
1120
0000
0032
0000
0123
0000
0031
0000
0001
0000
0001
0000
0011
0000
0010
0000
2200
3302
0103
2010
3202
1323
0030
1102
2123
3032
2203
3310
0001
2220
3332
1123
0031
0000
0000
0001
2200
3320
2132
3103
1120
2232
3303
0000
,
0000
0000
0000
0000
,
0000
0000
0000
0010
,
0000
0000
0000
0010
,
0000
0000
0010
0010
,
0010
0010
0010
0010
,
0010
0010
0010
0010
,
0010
0010
0010
0010
,
0010
0010
0010
0010
,
0010
0010
0010
0010
,
0010
0010
0010
0000
,
0010
0000
0010
0000
,
0010
0000
0010
0000
,
0010
0000
0010
0000
,
0010
0000
0010
0000
,
0010
0000
0010
0000
,
0010
0000
0010
0000
,
0010
0000
0010
0000
,
0010
0000
0010
0000
,
0010
0000
0010
0000
,
0010
0000
0010
0000
,
0010
0001
0011
0101
,
0001
0000
0001
0000
,
0010
0000
0010
0000
,
0100
0000
0100
0001
,
0002
0003
0001
0000
,
0010
0000
0010
0000
,
0010
0000
0010
0000
,
0020
0030
0010
0000
,
0010
0000
0010
0000
,
0010
0000
0010
1100
,
0000
1101
0000
1001
,
0000
0110
1001
0110
,
1101
0110
1001
0110
,
1001
1110
1111
1111
,
1111
0000
0000
0000
,
0000
0000
0000
0000
,
0000
0000
0000
0000
,
0000
0000
0000
0000
,
0000
0000
0000
0000
,
0000
0000
0000
0000
,
0000
0000
0000
0000
,
0000
0000
0000
0000
,
0000
0000
0000
0000
,
0000
0000
0000
0000
,
0000
0000
0000
0000
,
0000
0000
0000
0000
,
0000
0000
0000
0000
,
0000
0000
0000
0000
,
0000
0000
0000
0000
,
0000
0000
0000
0000
,
0000
0000
0000
0000
,
0000
0000
0000
0000
,
0000
0000
0000
0000
,
0000
0000
1111
0000
,
0000
0000
0000
0000
0000
0000
0000
0000
0000
0000
0000
0000
0000
0000
0000
0000
0000
0000
0000
0000
0000
0000
0000
0000
0000
0000
0000
0000
0000
0000
0000
0000
1120
0031
2210
3302
1123
0232
1323
0030
2201
3320
1132
1103
0002
2223
3332
2003
3010
2201
3320
0032
2203
3320
0232
2323
3032
2223
3332
2223
3332
2223
3330
2201
,
3320
0232
1323
0030
2201
3320
0032
1123
0032
2203
3310
2201
3320
0032
2203
3310
2201
3320
0032
2203
3320
0232
1323
0032
2223
3330
2202
3323
0032
2223
3330
2200
3320
2032
3123
0032
2203
3310
2201
3320
0032
2223
3332
2223
3332
1223
0332
2223
3332
1223
0332
2223
3332
1223
0332
2223
3332
1223
0331
1220
0332
1123
0031
2220
,
3332
2123
3032
1223
0332
1123
0032
1223
0332
1223
0332
1103
0001
1120
0031
1120
0032
2223
3330
2201
3320
0031
2220
3330
2201
3300
1222
0333
2201
3310
2201
3310
0001
0011
0001
1120
2231
3320
2231
3310
0001
1110
0001
1120
0031
1120
0031
1120
0031
1120
0031
1120
0031
1120
0031
1110
0001
1120
0031
1120
0031
1120
0031
1120
,
0031
0000
0000
1110
0000
0000
0001
0000
0000
1120
0000
0000
0031
0000
0000
1120
0000
0000
2231
0000
0000
3310
0000
0000
1120
0000
0000
2232
0000
0000
3323
0000
0000
0032
0000
0000
2223
0000
0000
3330
0011
0000
0000
0000
0100
0000
0000
0000
1220
0000
0000
0000
0332
0000
0000
0000
2203
0000
0000
0000
3302
0000
0000
0000
2223
0000
0000
0000
3332
0000
0000
0000
0103
0000
0000
0000
0120
0000
0000
0000
0132
0000
0000
0000
1123
0000
0000
0000
1132
0000
0000
0000
2003
0000
0000
0000
3220
0000
0000
0000
1332
0000
0000
0000
1123
0000
0000
0000
0032
0000
0000
0000
1103
0000
0000
0000
1102
0000
0000
0000
0003
0000
0000
0000
1002
0000
0000
0000
1123
0000
0000
0000
0231
0000
0000
0000
0300
0000
0000
0000
0100
0000
0000
0000
2201
0000
0000
0000
3310
0000
0000
0000
0001
0000
0000
0000
1020
0000
0000
0000
2231
0000
0000
0000
3320
0000
0000
0000
0032
0000
0000
0000
2223
0000
0000
0000
3332
0000
0000
0000
0003
0000
0000
0000
2220
0000
0000
0000
3332
0000
0000
0000
,
0023
0000
0000
0000
1032
0000
0000
0000
0203
0000
0000
0000
0310
0000
0000
0000
0001
0000
0000
0000
0010
0000
0000
0000
2201
0000
0000
0000
3300
0000
0000
0000
0000
0000
0000
0000
2201
0000
0000
0000
3300
0000
0000
0000
0200
0000
0000
0000
2000
0000
0000
0000
3300
0000
0000
0000
1120
0000
0000
0000
0032
0000
0000
0000
1003
0000
0000
0000
0220
0000
0000
0000
1330
0000
0000
0000
1120
0000
0000
0000
0031
0000
0000
0000
2210
0000
0000
0000
3311
0000
0000
0000
0102
0000
0000
0000
1123
0000
0000
0000
0132
0000
0000
0000
2003
0000
0000
0000
3210
0000
0000
0000
0311
0000
0000
0000
1010
0000
0000
0000
2201
0000
0000
0000
3011
0000
0000
0000
0320
0000
0000
0000
0031
0000
0000
0000
1110
0000
0001
0000
0000
0010
0000
0000
2201
0000
0000
3310
0000
0000
0010
0000
0000
0200
0000
0000
0310
0000
0000
0000
0000
0000
0010
0000
0000
0001
0000
0000
0201
0000
0000
1300
0000
0000
0102
0000
0000
2203
0000
0000
3311
0000
0000
2201
0000
0000
3321
0000
0000
2232
0000
0000
,
3323
0132
0023
2230
3300
0000
2201
3301
0121
0032
0023
2230
3321
0032
0223
1332
0003
0010
2201
3320
0032
1223
0332
1123
0232
1323
0032
0223
0332
0023
0232
1303
1100
2201
3312
1123
0032
1123
0032
0223
0332
1223
0332
1123
2031
3020
0031
2220
3332
1123
2231
3300
0000
1120
0031
1120
0032
1123
2231
3320
2232
3323
0032
1123
,
0032
1123
0032
1023
0032
1023
2231
3320
0032
1123
2231
3320
2231
3320
2231
3320
0232
1323
0032
1123
0032
1123
0032
1223
0332
1123
0032
1223
0332
1223
0332
1223
0331
1120
0032
2223
3331
0120
0032
1023
0031
1120
0032
1123
0032
1223
0332
1123
2231
3320
2230
3312
2203
3310
0001
2001
3020
0231
1310
2201
3320
0032
0223
0332
,
2223
3332
1223
0332
1123
0031
1120
0031
0010
2202
3313
2201
3310
2001
3110
2201
3300
2201
3310
0010
2220
3331
0020
2031
3210
0300
0010
2201
3310
1002
1203
0320
0032
0023
1030
0001
1220
0331
1220
0331
1120
0031
2100
3002
2223
3332
2213
3301
0200
0300
2201
3310
0001
0120
0031
0120
2231
3320
0031
1120
0031
1120
0031
1120
,
0031
0000
0000
0100
0000
0000
1120
0000
0000
0031
0000
0000
2220
0000
0000
3332
0000
0000
1223
0000
0000
0332
0000
0000
1123
0000
0000
0031
0000
0000
1120
0000
0000
0031
0000
0000
1120
0000
0000
0031
1100
0000
0000
0000
0200
0000
0000
0000
0302
0000
0000
0000
1123
0000
0000
0000
0231
0000
0000
0000
0310
0000
0000
0000
0011
0000
0000
0000
0010
0000
0000
0000
2200
0000
0000
0000
3320
0000
0000
0000
0031
0000
0000
0000
2210
0000
0000
0000
3300
0000
0000
0000
0001
0000
0000
0000
2120
0000
0000
0000
3031
0000
0000
0000
0120
0000
0000
0000
0032
0000
0000
0000
1123
0000
0000
0000
0032
0000
0000
0000
1223
0000
0000
0000
0332
0000
0000
0000
1123
0000
0000
0000
0032
0000
0000
0000
1123
0000
0000
0000
0030
0000
0000
0000
1102
0000
0000
0000
2203
0000
0000
0000
3310
0000
0000
0000
2201
0000
0000
0000
3311
0000
0000
0000
0201
0000
0000
0000
0310
0000
0000
0000
0001
0000
0000
0000
1120
0000
0000
0000
0032
0000
0000
0000
1123
0000
0000
0000
0031
0000
0000
0000
,
1120
0000
0000
0000
0032
0000
0000
0000
1113
2001
0000
0000
3010
0000
0000
0001
0000
0000
1011
0000
0000
2201
0000
0000
3301
0000
0000
0100
0000
0000
1100
0000
0000
1102
0000
0000
0003
0000
0000
1010
0000
0000
1210
0000
0000
0300
0000
0000
0120
0000
0000
0231
0000
0000
0300
0000
0000
2220
0000
0000
3332
0000
0000
0223
0000
0000
0332
0000
0000
0203
0000
0000
0310
0000
0000
0102
0000
0000
0103
0000
0000
1100
0000
0000
1000
0000
0000
0020
0000
0000
0030
0000
0000
0002
0000
0000
1003
0000
0000
0020
0000
0000
0032
0000
0000
0103
0000
0000
1120
0000
0000
0032
0000
0000
0123
0000
0000
0132
0000
0000
0003
0000
0000
0010
0000
0000
2010
0000
0000
3010
0000
0000
0201
0000
0000
0300
0000
0000
1100
0000
0000
1120
0000
0000
0032
0000
0000
0103
0000
0000
1202
0000
0000
0323
0000
0000
0130
0000
0000
0010
0000
0000
0201
0000
0000
2000
0000
0000
3320
0000
0000
0032
0000
0000
2223
0000
0000
3332
0000
0000
2203
0000
0000
3320
0000
0000
0032
0000
0000
2223
0000
0000
,
3332
0000
0000
0003
0000
0000
2210
0000
0000
3301
0000
0000
2120
0000
0000
3132
0000
0000
2203
0000
0000
3310
0000
0000
0201
0000
0000
0320
0000
0000
0232
0000
0000
0323
0000
0000
0032
0000
0000
0203
0000
0000
1320
0000
0000
0231
0000
0000
2320
0000
0000
3032
0000
0000
2203
0000
0000
3320
0000
0000
0031
0000
0000
0200
0000
0000
1320
0000
0000
0032
0000
0000
1013
0000
0000
0201
0000
0000
0320
0000
0000
0132
0000
0000
2003
0000
0000
3211
0000
0000
0300
0000
0000
0100
0000
0000
2010
0000
0000
0000
3201
0000
0000
0000
1320
0000
0000
0000
0230
0000
0000
0000
0320
0000
0000
0000
0132
0000
0000
0000
0123
0000
0000
0000
0032
0000
0000
0000
0003
0000
0000
0000
2210
0000
0000
0000
3312
0000
0000
0000
2003
0000
0000
0000
3210
0000
0000
0000
0302
0000
0000
0000
1123
0000
0000
0000
0132
0000
0000
0000
0003
0000
0000
0000
0010
0000
0000
0000
1000
0000
0000
0000
0000
0000
0020
0000
0000
0000
0000
0000
0232
0000
0000
0000
0000
0000
1303
0000
0000
0000
0000
0000
,
2200
3300
0000
1020
0231
1320
0132
1013
1121
0130
0120
2030
0000
0200
0320
0032
0203
0322
0033
0100
0002
0223
0330
0200
0320
0031
0100
0002
0203
0302
0023
0031
,
0110
0002
0203
0302
0223
0332
0003
0000
0100
0002
0003
0000
0200
0320
0032
0203
0320
0030
0020
0032
0013
0200
0311
0000
0000
0001
0200
0320
0032
0213
0320
0031
,
0000
0002
0023
0032
0023
0230
0302
0023
3030
0020
0000
0000
0000
0032
0000
0000
0003
0002
0223
0332
0003
0000
1000
0000
2200
0020
0000
3000
0030
0302
0023
0230
,
0000
0000
0000
2300
0000
0000
0002
0000
0000
0000
0003
3000
0000
0000
0200
0020
0000
0000
0000
0000
0330
0002
0000
0000
0000
2003
0000
3020
0130
0000
0000
0020
,
1131
1120
0032
1123
0232
1303
0002
1203
0301
0100
0201
0302
0223
0331
1101
1111
1111
1110
1110
1110
1111
1111
1111
1111
1111
1111
1111
1111
1111
1111
1111
1111
,
1111
1111
1101
1111
1111
1111
1110
1110
1111
1111
1110
1110
1110
1110
1111
1111
1111
1110
1110
1111
1111
1111
1111
1111
1111
1111
1110
1110
1111
1111
1111
1111
,
1110
0000
0000
0000
0000
0000
1110
0000
0000
0000
0000
0000
1111
0000
0000
0000
0000
0000
1111
0000
0000
0000
0000
0000
1101
0000
0000
0000
0000
0000
0010
0000
0000
0000
0000
0000
0102
0000
0000
0000
0000
0000
1123
0000
0000
0000
0000
0000
1131
0000
0000
0000
0000
0000
0011
0000
0000
0000
0000
0000
1111
0000
0000
0000
0000
0000
0111
0000
0000
0000
0000
0000
0111
0000
0000
0000
0000
0000
0000
0000
1011
0000
0000
0000
0000
0000
0000
0000
0120
0000
0000
0000
0000
0000
0000
0000
2030
0000
0000
0000
0000
0000
0000
0000
3210
0000
0000
0000
0000
0000
0000
0000
0310
0000
0000
0000
0000
0000
0000
0000
0001
0000
0000
0000
0000
0000
0000
0000
0010
0000
0000
0000
0000
0000
0000
0000
1022
0000
0000
0000
0000
0000
0000
0000
1133
0000
0000
0000
0000
0000
0000
0000
1010
0000
0000
0000
0000
0000
0000
0000
0000
0000
0000
0000
0000
0000
0000
0000
0000
0000
0000
0000
0000
0000
0000
0000
0000
0000
0000
0000
0000
0000
0000
0000
2201
0000
0000
0000
0000
0000
0000
0000
,
3301
0000
0001
0000
0011
0000
2201
0000
3310
0000
0010
0000
0001
0000
0000
0000
2201
0000
3321
0000
0032
0000
2223
0000
3332
0000
0003
0000
0010
0000
2201
0000
3320
0000
0030
0000
0201
0000
1310
0000
0002
0000
0103
0000
0000
0110
0000
0000
,
2201
3300
1111
1111
1111
1111
1111
1111
1111
1111
1011
1111
1111
1111
1111
1111
,
1111
1111
1111
1111
1111
1111
1111
1111
1111
1111
1001
1001
1101
1111
1111
1111
,
1111
1001
1001
1001
1001
1001
1001
1001
0000
2200
0300
0000
0000
0000
0000
0000
,
0000
0000
0000
0000
0200
0000
0000
0000
0000
0000
0000
0000
3300
1000
0000
0002
,
0220
2333
3022
2203
3332
2223
3330
2221
3332
2223
3330
2221
3330
2221
3332
2223
,
3330
2221
3330
2222
3333
2022
3133
2222
3333
2222
3333
2222
3333
2222
3333
2222
,
3333
0222
2333
3222
2333
3002
2103
3002
2203
3322
2203
3332
2223
3330
2022
3133
,
0222
2333
3022
2203
3332
2223
3332
2223
3330
2022
3133
2022
0033
3022
2033
3002
,
2223
3330
2222
3333
0222
2333
3222
2033
3322
2203
3332
2223
3332
2220
3333
0022
,
2133
3022
2203
3332
2223
3332
2223
3330
0222
0333
2222
0333
3002
2203
3322
2203
,
3332
2220
3333
0222
2333
3022
2203
3332
2223
3330
0222
2033
3322
2203
3330
2222
,
3333
0022
2233
3302
2223
3330
0022
2203
3332
2223
3330
2220
3302
0033
0022
1133
,
0002
0003
0000
0020
0230
0300
0222
2033
3302
0223
0330
2220
0002
3333
0000
0000
,
0000
0000
0000
0000
,
1000
0000
0000
0000
,
0000
0000
0000
0000
,
0000
0000
0000
0000
0000
0000
0000
0000
0000
0000
0000
0000
0000
0000
0000
0000
1111
1111
1111
1111
1111
1111
1111
1111
1111
1111
1111
1111
1111
1111
1111
1111
1111
1111
1111
1111
1111
1111
1111
1111
1111
1111
1111
1111
1111
1111
1111
1111
1111
1111
1111
1111
1111
1111
1111
1111
1111
1111
1111
1111
1111
1111
1111
1111
,
1111
1111
1111
1111
1111
1111
1111
1111
1111
1111
1111
1111
1111
1111
1111
1111
1111
1111
1111
1111
1111
1111
1111
1111
1111
1111
1111
1111
1111
1111
1111
1111
1111
1111
1111
1111
1111
1111
1111
1111
1111
1111
1111
1111
1111
1111
1111
1111
1111
1111
1111
1111
1111
1111
1111
1111
1111
1111
1111
1111
1111
1111
1111
1111
,
1111
1111
1111
1111
1111
1111
1111
1111
1111
1111
1111
1111
1111
1111
1111
1111
1111
1111
1111
1111
1111
1111
1111
1111
1111
1111
1111
1111
1111
1111
1111
1111
1111
1111
1111
1111
1111
1111
1111
1111
1111
1111
1111
1111
1111
1111
1111
1111
1111
1111
1111
1111
1111
1111
1111
1111
1111
1111
1111
1111
1111
1111
1111
1111
,
1111
0000
0000
1111
0000
0000
1111
0000
0000
1111
0000
0000
1111
0000
0000
1111
0000
0000
1111
0000
0000
1111
0000
0000
1111
0000
0000
1111
0000
0000
1111
0000
0000
1111
0000
0000
1111
0000
0000
1111
0000
0000
1111
0000
0000
1111
0000
0000
1111
0000
0000
1111
0000
0000
1111
0000
0000
0000
0000
0000
0000
0000
0000
0000
2000
0000
0000
0000
0000
0000
0000
0000
3000
0000
0000
0000
0111
0000
0000
0000
1110
0000
0000
0000
0011
0000
0000
0000
0100
0000
0000
0000
0100
0000
0000
0000
0111
0000
0000
0000
1110
0000
0000
0000
1011
0000
0000
0000
0110
0000
0000
0000
0011
0000
0000
0000
1220
0000
0000
0000
0331
0000
0000
0000
0110
0000
0000
0000
1000
0000
0000
0000
0012
0000
0000
0000
0013
0000
0000
0000
0211
0000
0000
0000
1300
0000
0000
0000
0011
0000
0000
0000
2100
0000
0000
0000
3011
0000
0000
0000
2200
0000
0000
0000
3312
0000
0000
0000
0213
0000
0000
0000
0302
0000
0000
0000
2103
0000
0000
0000
0111
0000
0000
0000
0000
0000
0000
0000
0000
0000
0000
0000
,
0000
0111
0000
0110
0001
0002
0000
0000
0000
3203
0000
0020
0000
0000
0331
1000
0111
1110
0021
0130
1000
0011
2200
3320
0031
1020
0032
2203
3302
0213
0301
2210
3312
2023
3030
0012
0203
1300
0011
2200
3322
1033
0011
1110
0000
2200
3322
1033
,
0001
0000
0000
0000
2001
0000
0000
0000
3000
0000
0000
0000
1020
0000
0000
0000
0032
0000
0000
0000
2203
0000
0000
0000
3300
0000
0000
0000
0102
0000
0000
0000
0213
0000
0000
0000
0311
0000
0000
0000
1100
0000
0000
0000
0011
0000
0000
0000
1110
0000
0000
0000
0001
0000
0000
0000
1010
0000
0000
0000
0001
0000
0000
0000
0100
0000
2010
0000
0000
0000
0000
0000
3010
0000
0000
0000
0000
0000
0110
0000
0000
0000
0000
0000
0011
0000
0000
0000
0000
0000
0111
0000
0000
0000
0000
0000
1110
0000
0000
0000
0000
0000
0011
0000
0000
0000
0000
0000
0011
0000
0000
0000
0000
0000
1111
0000
0000
0000
0000
0000
1110
0000
0000
0000
0000
0000
0111
0000
0000
0000
0000
0000
0011
0000
0000
0000
0000
0000
1110
0000
0000
0000
0000
0000
1110
0000
0000
0000
0000
0000
0011
0000
0000
0000
0000
0000
0011
0000
0000
0000
0000
0000
1000
0000
0000
0000
0000
0000
0110
0000
0000
0000
0000
0000
0011
0000
0000
0000
0000
0000
0011
0000
0000
0000
0000
0000
1100
0000
0000
0000
0000
0000
,
0011
0010
0200
0302
1103
0000
0111
1110
1111
1011
0110
0011
0011
2110
3100
0011
2111
3011
2110
3001
0011
0010
0010
0111
1110
1111
1112
0113
0110
0010
0011
2010
,
3001
1110
0220
0332
0003
1000
0000
0110
0120
0032
0013
0022
0033
2010
3000
0022
0133
0100
0001
1100
0001
0210
1300
0001
1110
1111
1011
1111
1111
1111
1111
1111
,
1111
1111
1111
1111
1111
1111
1111
1111
1111
1111
1111
1111
1111
1111
1111
1111
1111
1111
1111
1111
1111
1111
1111
1111
1111
1111
1111
1111
1111
1111
1011
1111
,
1111
0000
0000
0000
0000
0000
1111
0000
0000
0000
0000
0000
1111
0000
0000
0000
0000
0000
1111
0000
0000
0000
0000
0000
1111
0000
0000
0000
0000
0000
1011
0000
0000
0000
0000
0000
1101
0000
0000
0000
0000
0000
1111
0000
0000
0000
0000
0000
1111
0000
0000
0000
0000
0000
1111
0000
0000
0000
0000
0000
1111
0000
0000
0000
0000
0000
0000
0000
0000
0000
0000
0000
1111
0000
0000
0000
0000
0000
0000
0000
0200
0000
0000
0000
0000
0000
0000
0000
1301
0000
0000
0000
0000
0000
0000
0000
1100
0000
0000
0000
0000
0000
0000
0000
1010
0000
0000
0000
0000
0000
0000
0000
1101
0000
0000
0000
0000
0000
0000
0000
1010
0000
0000
0000
0000
0000
0000
0000
0001
0000
0000
0000
0000
0000
0000
0000
0110
0000
0000
0000
0000
0000
0000
0000
1110
0000
0000
0000
0000
0000
0000
0000
0001
0000
0000
0000
0000
0000
0000
0000
0111
0000
0000
0000
0000
0000
0000
0000
1120
0000
0000
0000
0000
0000
0000
0000
0031
0000
0000
0000
0000
0000
0000
0000
0100
0000
0000
0000
0000
0000
0000
0000
,
1000
0011
0110
0011
1000
0100
0101
1110
0001
0000
1111
1111
1111
0011
0011
0111
0111
1111
1000
1111
0111
1111
0000
1111
,
1111
0111
0111
0201
0300
0000
1111
1111
1111
1111
1111
1111
1111
1110
1111
0011
0000
2111
0110
0010
0010
0010
0000
0202
,
0000
0000
0010
0000
0010
0000
0010
0000
0010
0000
0010
0000
0000
0000
0020
0000
0030
0000
0310
0000
0110
0000
3010
0000
1003
0000
1111
0000
1111
0000
0100
0000
0000
1111
0000
0000
1111
0000
0000
0000
1111
0000
0000
0000
1111
0000
0000
0000
,
1111
1111
1111
1111
1111
1111
1111
1111
1111
1111
1111
1111
,
1111
1111
1100
0011
1100
0011
1100
0110
1100
0011
0011
1111
,
1111
1001
1110
1011
1111
1111
1111
1111
1011
1111
1011
0011
,
0111
2211
0300
0000
0111
0111
0111
0101
0000
3111
1110
1111
,
1111
0000
1111
0000
1111
0000
1111
0000
1111
0000
1111
0000
1111
0000
1111
1000
1111
0000
1111
0000
0000
1111
0000
0000
,
1111
1111
1111
1111
1111
1111
1111
1111
,
1111
0000
0000
0000
0000
0000
0000
0000
1111
0000
0000
0000
0000
0000
0000
0000
1111
0000
0000
0000
0000
0000
0000
0000
1111
0000
0000
0000
0000
0000
0000
0000
1111
1111
1111
1110
1110
1111
1111
1111
1100
1100
2200
3310
0000
1110
0220
0330
2220
3330
1121
2231
3320
0230
1310
0011
2120
3032
0123
0031
1120
0031
1120
0031
,
1120
0031
1120
0031
1120
0031
1120
0031
1120
0031
1120
0031
1120
0031
1120
0031
1120
0031
1110
0001
1120
0031
1110
0001
1120
0031
1120
0031
1120
0031
1120
0031
1120
0031
1110
0001
1110
0001
1120
0031
1020
0030
2000
3100
0000
0000
0000
0000
1000
0000
0000
0000
0000
0000
0000
0000
1001
0000
0000
0000
0000
0000
0000
0000
,
1100
0000
0002
1100
0000
0000
1113
0000
1111
0000
1111
0000
1110
0000
1110
0000
1100
0000
1011
0000
1011
0000
1001
0000
,
0100
0100
0010
1001
0101
1011
0101
1000
0101
1011
1010
1011
,
1001
0000
0000
0000
0000
0000
0000
0000
0000
0000
0000
0000
0000
0000
0000
0000
1001
0000
1000
0000
0000
1001
0000
0000
1001
0000
0000
1001
0000
0000
1001
0000
0000
1001
0000
0000
1000
0000
0000
1000
0000
0000
1000
0000
0000
1000
0000
0000
1000
0000
0000
1001
0000
0000
1001
0000
0000
1001
0000
0000
1000
0000
0000
1000
0000
0000
1001
0000
0000
1001
0000
0000
1001
0000
0000
1001
0000
0000
1001
0000
0000
1001
0000
0000
1001
0000
0000
1000
0000
0000
1000
0000
0000
1000
0000
0000
1001
0000
0000
1001
0000
0000
1001
0000
0000
1001
0000
0000
1001
0000
0000
1001
0000
0000
1001
0000
0000
1001
0000
0000
1001
0000
0000
1001
0000
0000
1001
0000
0000
1001
0000
0000
1001
0000
0000
1001
0000
0000
1001
0000
0000
1001
0000
0000
1001
0000
0000
1001
0000
0000
1001
0000
0000
1001
0000
0000
1001
0000
0000
1001
0000
0000
2000
0000
0000
0002
0000
0000
3003
0000
0000
2000
0000
0000
3002
0000
0000
2003
0000
0000
3002
0000
0000
0003
0000
0000
2000
0000
0000
3002
0000
0000
,
2003
3002
2003
3002
2003
3002
2003
3002
2003
3002
2003
3000
0000
0000
0000
0000
0000
0000
2000
0000
0000
0000
0000
0000
0002
0000
0000
0200
0000
0000
0300
0000
0020
0030
0200
0300
0000
0000
0020
0030
0000
0200
0300
0000
0020
0030
0200
0300
0000
0020
0030
0000
0200
0300
0000
0020
0030
0000
0200
0300
0000
0020
0030
0200
,
0300
0000
0020
0030
0200
0300
0020
0030
0000
0100
0020
0030
0000
0200
0300
0020
0030
0200
0300
0020
0030
0200
0300
0020
0030
0200
0300
0020
0030
0000
0100
0020
0030
0000
0200
0300
0010
0000
0200
0300
0000
0120
0030
0000
0000
0220
0330
0000
0220
0330
0000
0220
0330
0220
0330
0220
0330
0000
0020
0030
0220
0330
0220
0330
,
0220
0330
0220
0330
0003
0020
0030
0020
0030
0220
0330
0220
0330
0220
0330
0220
0330
0220
0330
0220
0330
0220
0330
0220
0330
0220
0330
0220
0330
0220
0330
0220
0332
0220
0330
0220
0330
0220
0330
0220
0330
0220
0330
0220
0330
0020
0030
0020
0030
0020
0030
0200
0010
0300
0220
0330
0220
0330
0220
0330
0220
0330
0220
0330
,
0023
0030
0020
0030
0020
0030
0000
0002
0020
0030
0020
0030
0000
0000
0023
0000
0230
0310
0000
3000
0000
0000
0000
0000
0000
0000
0000
0000
0000
0000
0000
0000
1111
0000
0000
0000
0000
0000
0000
0000
0000
0000
0000
0000
1111
0001
0000
0000
0000
0020
2200
0330
3000
0002
2203
0000
3320
0030
0002
2203
0000
3300
0020
0030
,
2000
0000
3200
0000
0302
0003
0110
0000
0000
0000
0000
0000
0000
0000
0000
0000
0000
0000
0000
0000
0000
0000
0000
0000
0000
0000
0000
0000
0000
0000
0000
0000
0000
0000
0000
0000
0000
0000
0000
0000
0000
0000
0000
0000
0000
0000
0000
0000
0000
0000
0000
0000
0000
0000
0000
0000
0000
0000
0000
0000
0000
0000
0000
0000
,
0000
0000
0000
0000
,
0000
0000
0000
0000
0000
0000
0000
0000
0000
0000
0000
0000
0000
0000
0000
0000
1111
0111
1011
1111
1111
1100
1111
1111
1111
1111
1111
1111
1111
1111
1111
1111
1111
1111
1111
1111
1111
1111
1111
1111
1111
1111
1111
1111
1111
1111
1111
1111
1111
1111
1111
1111
1111
1111
1111
1111
1111
1111
1111
1111
1111
1111
1111
1111
,
1111
0000
0000
1111
0000
0000
1111
0000
0000
1111
0000
0000
1111
0000
0000
1111
0000
0000
1111
0000
0000
1111
0000
0000
1111
0000
0000
1111
0000
0000
1111
0000
0000
1111
0000
0000
1111
0000
0000
1111
0000
0000
1111
0000
0000
1111
0000
0000
1111
0000
0000
1111
0000
0000
1111
0000
0000
1111
0000
0000
1111
0000
0000
1111
0000
0000
1111
0000
0000
1111
0000
0000
1111
0000
0000
1111
0000
0000
1111
0000
0000
1111
0000
0000
1111
0000
0000
1111
0000
0000
1111
0000
0000
1111
0000
0000
1111
0000
0000
1111
0000
0000
1111
0000
0000
1111
0000
0000
1111
0000
0000
1111
0000
0000
1111
0000
0000
1111
0000
0000
1111
0000
0000
1111
0000
0000
1111
0000
0000
1111
0000
0000
1111
0000
0000
1111
0000
0000
1111
0000
0000
1111
0000
0000
1111
0000
0000
1111
0000
0000
1111
0000
0000
1111
0000
0000
1110
0000
0000
0000
1111
0000
0000
0000
1111
0000
0000
0000
1111
0000
0000
0000
1111
0000
0000
0000
1111
0000
0000
0000
1111
0000
0000
0000
1111
0000
0000
0000
1111
0000
0000
0000
,
1111
1111
1111
1111
1111
1111
1111
1111
1111
1111
1111
1111
1111
1111
1111
1111
1111
1111
1111
1110
1111
1111
1111
1111
1111
1111
1111
1111
1111
1111
1111
1111
1111
1111
1111
1111
1111
1111
1111
1111
1111
1111
1111
1111
1111
1111
1111
1111
,
1111
1111
1111
1111
1111
1111
1111
1111
1111
1111
1111
1111
1111
1111
1111
1111
1111
1111
1111
1111
1111
1111
1111
1111
1111
1111
1111
1111
1111
1111
1111
1111
,
1111
0000
0000
0000
0000
0000
1111
0000
0000
0000
0000
0000
1111
0000
0000
0000
0000
0000
1111
0000
0000
0000
0000
0000
1111
0000
0000
0000
0000
0000
1111
0000
0000
0000
0000
0000
1111
0000
0000
0000
0000
0000
1111
0000
0000
0000
0000
0000
1111
0000
0000
0000
0000
0000
1111
0000
0000
0000
0000
0000
1111
0000
0000
0000
0000
0000
1111
0000
0000
0000
0000
0000
1111
0000
0000
0000
0000
0000
1111
0000
0000
0000
0000
0000
1111
0000
0000
0000
0000
0000
1111
0000
0000
0000
0000
0000
1111
0000
0000
0000
0000
0000
1111
0000
0000
0000
0000
0000
1111
0000
0000
0000
1111
0000
0000
0000
0000
0000
0000
0000
1111
0000
0000
0000
0000
0000
0000
0000
1111
0000
0000
0000
0000
0000
0000
0000
1111
0000
0000
0000
0000
0000
0000
0000
1111
0000
0000
0000
0000
0000
0000
0000
1111
0000
0000
0000
0000
0000
0000
0000
1111
0000
0000
0000
0000
0000
0000
0000
1111
0000
0000
0000
0000
0000
0000
0000
1111
0000
0000
0000
0000
0000
0000
0000
1111
0000
0000
0000
0000
0000
0000
0000
,
1111
1111
1111
1111
1111
1111
1111
1111
1111
1111
1111
1111
1111
1111
1111
1111
1111
1111
1111
1111
1111
1111
1111
1111
,
1111
1111
1111
1111
1111
1111
1111
1111
1111
1111
1111
1111
1111
1111
1111
1111
1111
1111
1111
1111
1111
1111
1111
1111
,
1111
0000
1111
0000
1111
0000
1111
0000
0000
1111
0000
0000
1111
0000
0000
1111
0000
0000
1111
0000
0000
1111
0000
0000
1111
0000
0000
1111
0000
0000
1110
0000
0000
1111
0000
0000
1111
0000
0000
1111
0000
0000
1111
0000
0000
1111
0000
0000
,
1111
1111
1111
1111
1111
1111
1111
1111
1111
1111
1111
1111
1111
1111
1111
1111
,
1111
1111
1111
1111
1111
1111
1111
1111
1111
1111
1111
1111
1111
1111
1111
1111
,
1111
1111
1111
1111
1111
1111
1111
1111
1111
1111
1111
1111
1111
1111
1111
1111
,
1111
1111
1111
1111
1111
1111
1111
1111
1111
1111
1111
1111
1111
1111
1111
1111
,
1111
1111
1111
1111
1111
1111
1111
1111
1111
1111
1111
1111
1111
1111
1111
1111
,
1111
1111
1111
1111
1111
1110
1110
1111
1111
1111
0000
1000
2112
0110
0110
3113
,
1111
1111
1111
1111
1111
1111
1111
1111
1111
1111
1111
1111
1111
1111
1111
1111
1111
1111
1111
1111
1111
1111
1111
1111
1111
1111
1111
1111
1111
1111
1111
1111
1111
1111
1111
1111
1111
1111
1111
1111
1111
1111
1111
1111
1111
1111
1111
1111
1111
1111
1111
1111
1111
1111
1111
1111
1111
1111
1111
1111
1111
1111
1111
1111
,
1111
1111
1111
1111
1111
1111
1111
1111
1111
1111
1111
1111
1111
1111
1111
1111
1111
1111
1111
1111
1111
1111
1111
1111
1111
1111
1111
1111
1111
1111
1111
1111
1111
1111
1111
1111
1111
1111
1111
1111
1111
1111
1111
1111
1111
1111
1111
1111
1111
1111
1111
1111
1111
1111
1111
1111
1111
1111
1111
1111
1111
1111
1111
1111
,
1111
0000
0000
1111
0000
0000
1111
0000
0000
1111
0000
0000
1111
0000
0000
1111
0000
0000
1111
0000
0000
1111
0000
0000
1111
0000
0000
1111
0000
0000
1111
0000
0000
1111
0000
0000
1111
0000
0000
1111
1111
0000
0000
0000
1111
0000
0000
0000
1111
0000
0000
0000
1111
0000
0000
0000
1111
0000
0000
0000
1111
0000
0000
0000
1111
0000
0000
0000
1111
0000
0000
0000
1111
0000
0000
0000
1111
0000
0000
0000
1111
0000
0000
0000
1111
0000
0000
0000
1111
0000
0000
0000
1111
0000
0000
0000
1111
0000
0000
0000
1111
0000
0000
0000
1111
0000
0000
0000
1111
0000
0000
0000
1111
0000
0000
0000
1111
0000
0000
0000
1111
0000
0000
0000
0011
0000
0000
0000
1111
0000
0000
0000
1111
0000
0000
0000
0000
0000
1111
0000
0000
0000
0000
0000
1111
0000
0000
0000
0000
0000
1111
0000
0000
0000
0000
0000
1111
0000
0000
0000
0000
0000
1111
0000
0000
0000
0000
0000
1111
0000
0000
0000
0000
0000
1111
0000
0000
0000
0000
0000
1111
0000
0000
0000
0000
0000
1111
0000
0000
0000
0000
0000
,
1111
1111
1111
1111
1111
1111
1111
1111
1111
1111
1111
1111
1111
1111
1111
1111
1111
1111
1111
1111
1111
1111
1111
1111
1111
1111
1111
1111
1111
1111
1111
1111
,
1111
1111
1111
1111
1111
1111
1111
1111
1111
1111
0000
1111
1111
1111
1111
1111
1111
1111
1111
1111
1111
1111
1111
1111
1111
1111
1111
1111
1111
1111
1111
1111
,
1111
1111
1111
1111
1111
1111
1111
1111
1111
1111
1111
1111
1111
1111
1111
1111
1111
1111
1111
1111
1111
1111
1111
1111
1111
1111
1111
1111
1111
1111
1111
1111
,
1111
1111
1111
1111
1111
1111
1111
1111
1111
1110
1110
1111
1111
1100
1111
1111
0000
0000
0010
0010
0010
0010
0010
0010
0010
0000
0010
0010
0010
0010
0000
0010
,
0010
0010
0010
0010
0010
0010
0010
0000
0000
0000
0010
0010
0010
0010
0010
0000
0010
0010
0010
0010
0010
0010
0010
0010
0010
0010
0010
0010
0010
0010
0010
0010
,
0010
0000
0000
0000
0000
0000
0010
0000
0000
0000
0000
0000
0010
0000
0000
0000
0000
0000
0010
0000
0000
0000
0000
0000
0000
0000
0000
0000
0000
0000
0000
0000
0010
0000
0000
0000
0000
0000
0000
0000
0010
0000
0000
0000
0000
0000
0000
0000
0010
0000
0000
0000
0000
0000
0000
0000
0010
0000
0000
0000
0000
0000
0000
0000
0010
0000
0000
0000
0000
0000
0000
0000
0010
0000
0000
0000
0000
0000
0000
0000
0010
0000
0000
0000
0000
0000
0000
0000
0010
0000
0000
0000
0000
0000
0000
0000
0010
0000
0000
0000
0000
0000
0000
0000
0010
0000
0000
0000
0000
0000
0000
0000
0010
0000
0000
0000
0000
0000
0000
0000
0010
0000
0000
0000
0000
0000
0000
0000
0010
0000
0000
0000
0000
0000
0000
0000
0010
0000
0000
0000
0000
0000
0000
0000
0010
0000
0000
0000
0000
0000
0000
0000
0010
0000
0000
0000
0000
0000
0000
0000
0010
0000
0000
0000
0000
0000
0000
0000
0010
0000
0000
0000
0000
0000
0000
0000
0010
0000
0000
0000
0000
0000
0000
0000
0010
0000
0000
0000
0000
0000
0000
0000
,
0010
0010
0010
0010
0010
0010
0010
0010
0010
0010
0010
0010
0010
0010
0010
0010
0010
0010
0010
0010
0010
0010
0010
0010
,
0010
0010
0010
0010
0010
0010
0000
0011
0001
0011
0001
0001
0001
1100
0000
1010
2001
3000
2220
3330
1110
1110
0110
0001
,
0001
2200
3322
1133
0001
0001
2000
3220
1330
1110
0110
0002
0003
0000
2220
3330
1110
1112
0003
0001
0000
0220
0330
0002
,
0003
0001
2200
3320
0002
0033
0001
0001
0001
0001
0000
1100
0000
0000
0000
0000
0000
2222
0000
0000
0000
0000
0000
3333
,
2222
0000
0000
0000
0000
0000
3333
2222
0000
0000
0000
0000
0000
0000
3333
2222
0000
0000
0000
0000
0000
0000
3333
0222
,
0000
0000
0000
0000
0000
0000
0000
0000
0000
0000
0333
2222
0000
0000
0000
0000
0000
0000
0000
0000
0000
3333
2222
0000
,
0000
0000
0000
0000
0000
0000
0000
0000
0030
3303
0000
0002
2220
0000
0000
0000
0000
0000
0000
0000
0000
0000
0000
3333
,
0000
2222
0000
0000
0000
0000
0000
0000
0000
0000
0000
3330
0003
0000
0000
2222
0000
0000
0000
0000
0000
0000
0000
0000
,
0000
0000
0000
0000
,
0000
0000
0000
0000
,
0000
0000
0000
0000
0000
0000
0000
0000
0000
0000
0000
0000
3303
0030
0000
0000
0000
0000
0000
0000
0110
0000
0000
0000
,
0000
0000
0000
2000
3100
0000
0200
0000
0300
0000
2222
0000
0000
0000
0000
0000
,
0000
0000
0000
3333
0000
0000
0000
0000
2222
0000
0000
0000
0000
0000
0000
0000
,
3333
0000
0000
2002
0220
0000
0000
0000
0000
0000
0000
3033
0300
0000
0000
0000
,
0000
0000
0000
0000
0000
0000
0000
0000
0000
0000
0000
0000
0000
0000
0000
0110
,
0000
1111
0010
1110
,
0110
1111
0111
1100
,
1111
1011
1110
0111
,
1111
1111
1111
1111
,
0011
1110
1111
1111
,
1111
1111
1111
1111
,
1111
1111
1111
1111
,
1111
1111
1111
1111
,
1111
1111
0000
2222
,
3333
2222
3333
2022
,
3033
2222
0000
3333
,
2222
0000
0000
0000
3333
0000
0000
0000
1110
1110
1111
0011
0001
2201
3320
1130
,
1100
0000
1102
0000
0003
0000
0000
0000
1000
1100
1110
0110
0110
0000
2000
3100
0000
1000
1100
1110
0000
1100
1100
1100
0020
0130
1222
0303
0032
0203
2320
3132
,
1103
2201
3320
1132
0103
2200
3302
2203
3300
1002
2223
3330
2000
3220
1332
0003
2220
3330
1102
0003
0200
0302
2203
3320
0132
2003
3200
1302
0223
2330
3112
0003
,
0200
0302
0003
2220
3332
0003
2220
3332
0023
2200
3332
2223
3330
2220
3330
0000
2220
3332
0003
2200
3300
0000
2220
3332
0003
0220
0332
2223
3332
2203
3300
1102
,
2223
3330
0002
2223
3332
2203
3300
0102
2223
3332
2223
3330
0000
0000
0002
2023
3002
2203
3332
2223
3302
0003
0032
0023
0030
2220
0332
3223
1332
2003
3220
0332
,
2223
3332
2203
3302
0003
0220
0332
2223
3330
0000
2220
3332
2223
3330
0000
2220
3332
2223
3330
0102
2223
3332
2003
3200
1302
2203
3300
2000
3220
1332
2203
3300
,
2002
0203
3300
0000
2220
3332
2203
3300
1102
2223
3332
0003
0200
0302
2203
3300
1102
2203
3300
2000
3000
0002
2223
3332
2223
3330
0000
2220
3332
2203
3300
0002
,
0223
0330
0000
0220
0332
2223
3330
0000
0000
0000
0200
0300
2220
3332
2223
3330
0200
0320
0030
2200
3302
2223
3332
2223
3332
2203
3300
0000
0220
1332
2223
3332
,
2003
3202
2003
3300
0000
0000
2002
3200
2003
3300
2200
3302
0223
1332
2223
3332
2203
3300
0000
0220
0330
0200
2000
0002
0023
3330
2202
3003
0300
0020
2030
3020
,
1030
2220
0332
3220
0333
2012
3000
2003
3020
2000
3030
0020
0030
2220
3332
0023
1030
2220
3330
0220
0332
2223
3332
2003
3022
2203
3332
2203
3022
2003
3332
0003
,
0000
0002
2223
3332
2003
3202
2003
3302
0203
0002
0003
2022
0000
3033
0000
0300
0000
2002
3003
0102
2003
3202
2003
3020
0000
2000
3032
2303
3022
2203
3302
2033
,
3022
2003
3200
0000
2030
3322
2003
3002
2203
3032
2003
3022
2303
3002
1233
2000
3302
2023
3000
0202
0033
1300
2000
3202
2003
3000
0300
0000
0000
0020
1130
0000
,
0000
0000
0000
1111
1111
1111
1111
1111
1111
1111
1111
1111
,
1111
1111
1111
1111
1111
1111
1111
1111
1111
1111
1111
1111
,
1111
1111
1111
1111
1111
1111
1111
1111
1111
1111
1111
1111
,
1111
1111
1111
1111
1111
1111
1111
1111
1111
1111
1111
1111
,
1111
1111
1111
1111
1111
1111
1111
1111
1111
1111
1111
1111
,
1111
1111
1111
1111
1111
1111
1111
1111
1111
1111
1111
1111
,
1111
1111
1111
1111
1111
1111
1111
1111
1111
1111
1111
1111
,
1111
1111
1111
1111
1111
1111
1111
1111
1111
1111
1111
1111
,
1111
1111
1111
1111
1111
1111
1111
1111
1111
1111
1111
1111
,
1111
1111
1111
1111
1111
1111
1111
1111
1111
1111
1111
1111
,
1111
1111
1111
1111
1111
1111
1111
1111
1111
1111
1111
1111
,
1111
1111
1111
1111
1111
1111
1111
1111
1111
1111
1111
1111
,
1111
1111
1111
1111
1111
1111
1111
1111
1111
1111
1111
1111
,
1111
1111
1111
1111
1111
1111
1111
1111
1111
1111
1111
1111
,
1111
1111
1111
1111
1111
1111
1111
1111
1111
1111
1111
1111
,
1111
0000
0000
0000
1111
0000
1111
0000
0000
1111
0000
0000
1111
0000
0000
1111
0000
0000
1111
0000
0000
1111
0000
0000
1111
0000
0000
0000
0000
0000
1111
0000
0000
0000
0000
0000
1111
0000
0000
0000
0000
0000
1111
0000
0000
0000
0000
0000
,
1111
1111
1111
1111
1111
1111
1111
1111
,
1111
1111
1111
1111
1111
1111
1111
1111
,
1111
1111
1111
1111
1111
1111
1111
1111
,
1111
1111
1111
1110
1110
1111
1111
1111
,
1110
1000
0100
0010
0001
0010
0100
1000
,
0100
0010
0001
0010
0100
1000
0100
0010
,
0001
0010
0100
1000
0100
0010
0001
0010
,
0100
1000
0100
0010
0001
0010
0100
1000
,
0100
0000
0000
0010
0000
0000
0001
0000
0000
0110
0100
0000
0010
0000
0001
0000
0010
0000
0100
0000
1000
0000
0100
0000
,
0010
0001
0010
0100
1000
0100
0010
0001
0000
0011
0100
1000
,
0100
0000
0000
0010
0000
0000
0001
0000
0000
0110
0000
0000
1000
0000
0000
0110
0000
0000
0002
0000
0000
1103
0000
0000
0000
0000
1000
0000
0100
0000
0010
0000
0001
0000
0010
0000
0100
0000
1000
0000
0100
0000
0010
0000
0001
0000
0001
0000
,
0010
0000
0000
0000
0000
0000
0000
0000
2210
0000
0000
0000
0000
0000
0000
0000
3300
0000
0000
0000
0000
0000
0000
0000
1000
0000
0000
0000
0000
0000
0000
0000
0110
0000
0000
0000
1110
0000
0000
0000
0000
0000
0010
0000
0000
0000
0000
0000
0011
0000
0000
0000
0000
0000
0011
0000
0000
0000
0000
0000
0111
0000
0000
0000
0000
0000
0111
0000
0000
0000
0000
0000
1110
0000
0000
0000
0000
0000
2220
0000
0000
0000
0000
0000
0000
0000
0000
0000
0000
0000
0000
0000
0000
0000
0000
0000
0002
0000
0000
0000
0000
0000
0030
0000
0000
0000
0000
0000
0003
0000
0000
0000
0000
0000
0020
0000
0000
0000
0000
0000
0032
0000
0000
0000
0000
0000
0003
0000
0000
0000
0000
0000
0000
0000
0000
0000
0000
0000
0002
0000
0000
0000
0000
0000
0003
0000
0000
0000
0000
0000
0001
0000
0000
0000
0000
0000
0022
0000
0000
0000
0000
0000
0033
0000
0000
0000
0000
0000
0002
0000
0000
0000
0000
0000
0023
0000
0000
0000
0000
0000
0032
0000
0000
0000
0000
0000
0023
0000
0000
0000
0000
0000
,
0032
0023
0032
0023
0032
0023
0030
0020
0030
0012
0023
0032
0023
0030
0020
0030
0000
0000
0020
0000
0000
0030
0010
0020
0030
0020
0030
0022
0033
0012
0023
0030
,
0002
0020
0000
3333
0000
1100
1100
1100
1100
1100
1100
1100
1100
1100
1100
1100
1100
1100
1100
1100
1100
1100
1100
1100
1100
1100
1100
1100
1100
1100
1100
1100
,
1100
1100
1100
1100
1100
1100
1100
1100
1100
1100
1100
1100
1100
1100
1100
1100
1100
1100
1100
1100
1100
1100
1100
1100
1100
1100
1100
1100
1100
1100
1100
1100
,
1111
1010
1110
0111
0111
0001
0001
1011
0111
0110
0000
1100
0010
1102
2223
3330
0000
0102
0003
0001
0220
1332
2223
3332
0003
0220
0332
2223
3332
2203
3320
0132
,
2223
3330
0000
0220
0332
2223
3330
0000
0220
0332
2223
3332
2203
3300
0000
0220
0332
2223
3330
0100
2220
3332
2223
3332
2003
3200
1302
2223
3332
2203
3300
1100
,
2220
3332
2203
3300
2000
3220
1332
0223
0330
0220
0330
2220
3332
2223
3332
2203
3320
0202
0303
0032
2223
3332
2223
3332
2003
3200
1300
2220
3332
0223
0330
2000
,
3200
2000
3300
1000
0220
0332
0223
0332
2223
3330
2000
3020
1032
2223
3332
2003
3020
1030
2220
3332
2223
3330
1002
2223
3332
2203
3300
1002
2223
3330
2200
3320
,
2030
3220
1332
0003
2221
3330
1102
2003
0002
3223
0332
2223
3330
1112
0003
2200
3300
0000
2220
3330
1102
0003
2200
3320
1130
1102
2223
3330
1102
2223
3330
0020
,
0000
1030
2220
3332
2003
3200
1302
2203
3300
1102
2203
3320
0132
0003
2220
3332
0003
0200
0302
2203
3320
2030
3020
0000
0030
2200
3302
0223
0000
0332
2203
3300
,
0002
2223
3332
0003
2200
3302
2223
3330
0000
0220
0330
2220
0002
0003
3332
0003
0220
0332
2223
3332
0003
0220
0330
0220
0332
2223
3330
0000
0020
0000
0030
0220
,
0330
2220
3332
2223
3332
2003
3200
0302
0223
0332
2223
3332
2223
3332
2223
3332
2223
3332
2203
3302
2203
3322
2203
3332
2223
3332
2223
3332
2223
3332
2223
3332
,
0023
0030
2020
3002
2200
0033
3300
2220
3330
2220
3330
2220
3330
2202
3320
2203
3332
2223
3332
2223
3332
0003
0100
2220
3330
0222
0330
2013
3220
1330
2220
0332
,
3000
2223
3332
2223
3332
2223
3332
2223
3332
2223
3332
2223
3332
2203
3322
2203
3330
2200
3302
2220
0333
0002
0203
3302
2200
3320
2203
3332
2223
3332
2223
3332
,
2223
3332
0223
0332
0023
0032
0223
0332
0223
0332
0223
0332
2223
3332
2203
3302
0203
2300
0200
3300
2202
3300
2203
3322
2200
3330
2223
3332
2223
3332
2223
3332
,
2203
3302
2003
3200
0300
2220
3330
2220
3330
0220
0330
0220
0330
2220
0030
3300
2100
3220
2330
3000
0202
0300
2203
3302
2203
3322
2203
3330
0000
0000
0000
0002
,
2200
0003
3020
2330
3200
1300
2220
3332
2223
3332
0003
2222
0303
3030
1111
1111
1111
1111
1111
1111
1111
1111
1111
1111
1111
1111
1111
1111
1111
1111
1111
1111
,
0021
2231
3301
1102
1123
1132
2000
3023
0032
1103
0022
2233
3320
1132
1123
0032
,
2203
3320
1032
1023
1132
1103
1120
0132
0123
0132
2223
3332
2023
3230
1300
2020
,
3032
1103
1120
0032
1123
0032
1123
0031
1120
0031
1110
2001
3120
0030
2220
3331
,
1120
0031
1120
0031
0000
0000
0000
0000
0000
0000
0000
0000
0110
0000
0000
0000
,
0000
0110
0000
0100
,
0001
1000
0100
0010
,
0001
1000
0100
0010
,
0001
1120
0031
1220
,
0331
1120
0031
1220
,
0331
1110
0001
1120
,
0031
1120
0031
1120
,
0031
1120
0031
2200
,
3310
0001
1000
0100
,
0011
0001
1000
0100
,
0001
0001
1100
0010
,
0001
1000
0200
0301
,
2000
3000
0110
0001
,
0102
0000
0003
0000
0011
0000
0000
1000
,
0000
0111
0122
0133
0100
2222
3333
2111
,
3000
0200
0302
1103
1111
1001
0000
2222
,
3333
1111
0111
0001
0000
2222
3333
0111
,
0001
0000
2222
3333
1111
0001
0000
2220
,
3332
1113
0111
0000
0020
2230
3312
0013
,
0011
0000
0000
2020
0032
3013
0111
0000
,
0000
2220
3332
1113
0111
0011
0001
2000
,
3022
1033
0111
0000
2220
3332
1113
0101
,
0000
2200
3322
1133
1111
2221
3330
1110
,
0111
0110
0112
0023
0030
2002
3003
0000
,
0000
1111
1111
1111
1111
1111
1111
1100
,
0011
1100
0011
1100
0011
1100
0011
1100
,
0011
1100
0011
1100
0011
1100
0011
1100
,
0011
1100
0011
1100
0011
1100
0011
1100
,
0011
1100
0011
1100
0011
1100
0011
1100
,
0011
1100
0011
1100
0011
1100
0011
1100
,
0011
1100
0011
1100
0011
1100
0011
1100
,
0011
1100
0011
1100
0011
1100
0011
1100
,
0011
1100
0011
1100
0011
1100
0011
1100
,
0011
1000
0100
0010
0001
0010
0100
1000
,
0100
0010
0001
0010
0100
1000
0100
0000
,
0010
0010
0110
0110
,
0110
0110
0110
0110
,
0110
0110
0110
0110
,
0110
0110
0110
0110
,
0110
0110
0110
0110
,
0110
0110
0000
0110
,
0000
0110
0000
0110
,
0000
0110
0000
0110
,
0000
0110
0000
1001
,
0000
0110
0000
1001
,
0000
0110
0000
1001
,
0000
0110
0000
1001
,
0000
0110
0000
1001
,
0000
0000
0000
0110
,
0000
0000
0000
1001
,
0000
0000
0000
0110
,
0000
0000
0000
0000
,
1001
0000
0000
0000
,
0000
0010
0000
0000
,
0000
0000
0100
0000
,
0000
0000
0000
0010
,
0000
0000
0000
0000
,
0000
0100
0000
0000
,
0000
0000
0010
0000
,
0000
0100
0000
0000
,
0000
0000
0000
0000
,
0000
0000
0000
0000
,
0000
0000
0000
0000
,
0000
0000
0000
0000
,
0000
0000
0000
0000
,
0000
0000
0000
0000
0000
0000
0000
0000
0000
0000
0000
0000
0000
0000
0000
0000
0000
0000
0000
0000
0000
0000
0000
0000
0000
0000
0000
0000
0000
0000
0000
0000
0000
0000
0000
0000
0000
0000
0000
0000
0000
0000
0000
0000
0000
0000
0000
0000
1111
0000
0000
0000
0000
0000
0000
0000
0000
1111
1111
1111
1111
1111
1111
1111
,
1111
0000
0000
1111
0000
0000
1111
0000
0000
1111
0000
0000
1111
0000
0000
1110
0000
0000
1110
0000
0000
1110
0000
0000
1110
0000
0000
0110
0000
0000
0111
0000
0001
0001
0000
0000
0001
0000
0000
0000
0011
0000
0000
0000
0000
0000
0000
0000
1110
0000
0000
0000
1111
0000
0000
0000
1111
0000
0000
0000
1111
0000
0000
0000
1110
0000
0000
0000
1110
0000
0000
0000
1110
0000
0000
0000
1110
0000
0000
0000
1111
0000
0000
0000
0011
0000
0000
0000
0011
0000
0000
0000
0111
0000
0000
0000
1110
0000
0000
0000
1111
0000
0000
0000
1111
0000
0000
0000
1011
0000
0000
0000
1111
0000
0000
0000
1111
0000
0000
0000
1011
0000
0000
0000
1111
0000
0000
0000
1111
0000
0000
0000
0011
0000
0000
0000
0111
0000
0000
0000
0111
0000
0000
0000
0111
0000
0000
0000
0011
0000
0000
0000
0011
0000
0000
0000
0111
0000
0000
0000
1111
0000
0000
0000
1111
0000
0000
0000
1111
0000
0000
0000
1011
0000
0000
0000
1111
0000
0000
0000
1111
0000
0000
0000
1111
0000
0000
0000
1111
0000
0000
0000
,
1111
1111
1111
1011
1111
0111
0111
1111
1011
1111
1111
1111
1111
1111
1111
1111
1111
1111
1011
1111
1111
1111
1111
1111
1111
1111
1111
1111
1111
1111
1111
1111
1111
1111
1111
1111
1111
1111
1111
1111
1111
1111
1111
1111
1111
1111
1111
1111
,
1111
0000
0000
0000
1111
0000
0000
0000
1111
0000
0000
0000
1111
0000
0000
0000
1111
0000
0000
0000
1111
0000
0000
0000
1111
0000
0000
0000
1111
0000
0000
0000
1111
0000
0000
0000
1111
0000
0000
0000
1111
0000
0000
0000
1111
0000
0000
0000
1111
0000
0000
0000
1111
0000
0000
0000
1111
0000
0000
0000
1111
0000
0000
0000
1111
0000
0000
0000
1111
0000
0000
0000
1111
0000
0000
0000
1111
0000
0000
0000
1111
0000
0000
0000
1111
0000
0000
0000
1111
0000
0000
0000
1111
0000
0000
0000
1111
0000
0000
0000
1111
0000
0000
0000
1111
0000
0000
0000
1111
0000
0000
0000
1111
0000
0000
0000
1111
0000
0000
0000
1111
0000
0000
0000
1111
0000
0000
0000
1111
0000
0000
0000
1111
0000
0000
0000
1111
0000
0000
0000
1111
0000
0000
0000
1111
0000
0000
0000
1111
0000
0000
0000
1111
0000
0000
0000
1111
0000
0000
0000
1111
0000
0000
0000
1111
0000
0000
0000
1111
0000
0000
0000
1111
0000
0000
0000
1111
0000
0000
0000
1111
0000
0000
0000
1111
0000
0000
0000
0000
1111
0000
0000
,
0000
1111
1111
1111
1111
1111
1111
1111
1111
1111
1111
1111
1111
1111
1111
1111
1111
1111
1111
1111
1111
1111
1111
1111
1111
1111
1111
1111
1111
1111
1111
1111
1111
1111
1111
1111
1111
1111
1111
1111
1111
1111
1111
1111
1111
1111
1111
1111
1111
1111
1111
1111
1111
1111
1111
1111
1111
1111
1111
1111
1111
1111
1111
1111
,
1111
1111
1111
1111
1111
1111
1111
1111
1111
1111
1111
1111
1111
1111
1111
1111
1111
1111
1111
1111
1111
1111
1111
1111
1111
1111
1111
1111
1111
1111
1111
1111
1111
1111
1111
1111
1111
1111
1111
1111
1111
1111
1111
1111
1111
1111
1111
1111
1111
1111
1111
1111
1111
1111
1111
1111
1111
1111
1111
1111
1111
1111
1111
1111
,
1111
1111
1111
1111
1111
1111
1111
1111
1111
1111
1111
1111
1111
1111
1111
1111
1111
1111
1111
1111
1111
1111
1111
1111
1111
1111
1111
1111
1111
1111
1111
1111
1111
1111
1111
1111
1111
1111
1111
1111
1111
1111
1111
1111
1111
1111
1111
1111
1111
1111
1111
1111
1111
1111
1111
1111
1111
1111
1111
1111
1111
1111
1111
1111
,
1111
1111
1111
1111
1111
1111
1111
1111
1111
1111
1111
1111
1111
1111
1111
1111
1111
1111
1111
1111
1111
1111
1111
1111
1111
1111
1111
1111
1111
1111
1111
1111
1111
1111
1111
1111
1111
1111
1111
1111
1111
1111
1111
1111
1111
1111
1111
1111
1111
1111
1111
1111
1111
1111
1111
1111
1111
1111
1111
1111
1111
1111
1111
1111
,
1111
1111
1111
1111
1111
1111
1111
1111
1111
1111
1111
1111
1111
1111
1111
1111
1111
1111
1111
1111
1111
1111
1111
1111
1111
1111
1111
1111
1111
1111
1111
1111
1111
1111
1111
1111
1111
1111
1111
1111
1111
1111
1111
1111
1111
1111
1111
1111
1111
1111
1111
1111
1111
1111
1111
1111
1111
1111
1111
1111
1111
1111
1111
1111
,
1111
1111
1111
1111
1111
1111
1111
1111
1111
1111
1111
1111
1111
1111
1111
1111
1111
1111
1111
1111
1111
1111
1111
1111
1111
1111
1111
1111
1111
1111
1111
1111
1111
1111
1111
1111
1111
1111
1111
1111
1111
1111
1111
1111
1111
1111
1111
1111
1111
1111
1111
1111
1111
1111
1111
1111
1111
1111
1111
1111
1111
1111
1111
1111
,
1111
1111
1111
1111
1111
1111
1111
1111
1111
1111
1111
1111
1111
1111
1111
1111
1111
1111
1111
1111
1111
1111
1111
1111
1111
1111
1111
1111
1111
1111
1111
1111
1111
1111
1111
1111
1111
1111
1111
1111
1111
1111
1111
1111
1111
1111
1111
1111
1111
1111
1111
1111
1111
1111
1111
1111
1111
1111
1111
1111
1111
1111
1111
1111
,
1111
1111
1111
1111
1111
1111
1111
1111
1111
1111
1111
1111
1111
1111
1111
1111
1111
1111
1111
1111
1111
1111
1111
1111
1111
1111
1111
1111
1111
1111
1111
1111
1111
1111
1111
1111
1111
1111
1111
1111
1111
1111
1111
1111
1111
1111
1111
1111
1111
1111
1111
1111
1111
1111
1111
1111
1111
1111
1111
1111
1111
1111
1111
1111
,
1111
0000
0000
1111
0000
0000
1111
0000
0000
1111
0000
0000
1111
0000
0000
1111
0000
0000
1111
0000
0000
1111
0000
0000
1111
0000
0000
1111
0000
0000
1111
0000
0000
1111
0000
0000
1111
0000
0000
1111
0000
0000
1111
0000
0000
1111
0000
0000
1111
0000
0000
1111
0000
0000
1111
0000
0000
1111
0000
0000
1111
0000
0000
1111
0000
0000
1111
0000
0000
1111
0000
0000
1111
0000
0000
1111
0000
0000
1111
0000
0000
1111
0000
0000
1111
0000
0000
1111
0000
0000
1111
0000
0000
1111
0000
0000
1111
0000
0000
1111
0000
0000
1111
0000
0000
1111
0000
0000
1111
0000
0000
1111
0000
0000
1111
0000
0000
1111
0000
0000
1111
0000
0000
1111
0000
0000
1111
0000
0000
1111
0000
0000
1111
0000
0000
1111
0000
0000
1111
0000
0000
0000
0000
0000
0000
0000
0000
0000
1111
0000
0000
0000
1111
0000
0000
0000
0000
0000
0000
0000
0000
0000
0000
0000
1111
0000
0000
0000
1111
0000
0000
0000
0000
0000
0000
0000
1111
0000
0000
0000
1111
0000
0000
0000
1111
0000
0000
0000
1111
0000
0000
0000
,
0000
1111
0000
1111
0000
1111
0000
1111
0000
1111
0000
1111
0000
1111
0000
1111
0000
1111
0000
1111
0000
1111
0000
1111
0000
1111
0000
1111
0000
1111
0000
1111
0000
1111
0000
1111
0000
1111
0000
1111
0000
1111
0000
1111
0000
1111
0000
1111
,
0000
1111
0000
1111
0000
1111
0000
1111
0000
1111
0000
1111
0000
1111
0000
1111
0000
1111
0000
1111
0000
1111
0000
1111
0000
1111
0000
1111
0000
1111
0000
1111
0000
1111
0000
1111
0000
1111
0000
1111
0000
1111
0000
1111
0000
1111
0000
1111
,
0000
1111
0000
1111
0000
1111
0000
1111
0000
1111
0000
1111
0000
1111
0000
1111
0000
1111
0000
1111
0000
1111
0000
1111
0000
1111
0000
1111
0000
1111
0000
1111
0000
1111
0000
1111
0000
1111
0000
1111
0000
1111
0000
1111
0000
1111
0000
1111
,
0000
1111
0000
1111
0000
1111
0000
1111
0000
1111
0000
1111
0000
1112
0003
1111
0000
1111
0000
1111
0000
1111
0000
1111
0000
1111
0000
1111
0000
1111
0000
1111
0000
1111
0000
1111
0000
1111
0000
1111
0000
1111
0000
1111
0000
1111
0000
1111
,
0000
1111
0000
1111
0000
1111
0000
1111
0000
1111
0000
1111
0000
1111
0000
1111
0000
1111
0000
1111
0000
1111
0000
1111
0000
1111
0000
1111
0000
1111
0000
1111
0000
1111
0000
1111
0000
1111
0000
1112
0003
1111
0000
1111
0000
1111
0000
1111
,
0000
1111
0000
1112
0003
1112
0003
1112
0003
1111
0000
1111
0000
1111
0000
1111
0000
1111
0000
1111
0000
1111
0000
1111
0000
1111
0000
1111
0000
1111
0000
1111
0000
1111
0000
1111
0000
0000
0000
0000
0000
0000
0011
0000
0011
0000
0011
0000
,
0011
0011
0011
0011
0011
0011
0011
0011
0011
0011
0011
0011
0011
0011
0001
0001
0001
0011
0011
0011
0011
0011
0011
0011
,
0011
0011
0011
0011
0011
0011
0011
0011
0011
0011
0011
0011
0011
0011
0011
0011
0011
0001
0011
0000
0011
0011
0011
0011
,
0011
0011
0011
0011
0011
0011
0011
0011
0011
0011
0011
0011
0011
0011
0011
0011
0011
0011
0011
0011
0011
0011
0011
0011
,
0011
0011
0011
0001
0001
0011
0011
0000
0011
0011
0011
0000
0011
0000
0011
0000
0011
0000
0011
0000
0011
0000
0011
0000
,
0011
0011
0011
0011
0011
0011
0011
0011
0011
0011
0011
0011
,
0011
0011
0011
0011
0011
0011
0011
0011
0011
0011
0011
0011
,
0011
0011
0011
0011
0011
0011
0011
0011
0011
0011
0011
0011
,
0011
0011
0011
0011
0011
0011
0011
0011
0011
0011
0011
0011
,
0011
0011
0011
0011
0000
0011
0011
0011
0000
0011
0000
0011
0000
0011
0000
0011
0000
0011
0000
0011
0000
0011
0000
0011
,
0000
1111
0000
1111
0000
1111
0000
1111
0000
1111
0000
1111
0000
1111
0000
1111
0000
1111
0000
1111
0000
1111
0000
1111
,
0000
1111
0000
1111
0000
1111
0000
1111
0000
1111
0000
1111
0000
1111
0000
1111
0000
1111
0000
1111
0000
1111
0000
1111
,
0000
1111
0000
1111
0000
1111
0000
1111
0000
1111
0000
1111
0000
1111
0000
1111
0000
1111
0000
1111
0000
1111
0000
1111
,
0000
1111
0000
1111
0000
1111
0000
1111
0000
1111
0000
1111
0000
1111
0000
1111
0000
1111
0000
1111
0000
1111
0000
1111
,
0000
1111
0000
1111
0000
1111
0000
1111
0000
1111
0000
1111
0000
1111
0000
1111
0000
1111
0000
1111
0000
1111
0000
1111
,
0000
1111
0000
1111
0000
1111
0000
1111
0000
1111
0000
1111
0000
1111
0000
1111
0000
1111
0000
1111
0000
1111
0000
1111
,
0000
1111
0000
1111
0000
1111
0000
1111
0000
1111
0000
1111
0000
1111
0000
1111
0000
1111
0000
1111
0000
1111
0000
1111
,
0000
1111
0000
1111
0000
1111
0000
1111
0000
1111
0000
1111
0000
1111
0000
1111
0000
1111
0000
1111
0000
1111
0000
1111
,
0000
1111
0000
1111
0000
1111
0000
1111
0000
1111
0000
1111
0000
1111
0000
1111
0000
1111
0000
1111
0000
1111
0000
1111
,
0000
1111
0000
1111
0000
1111
0000
1111
0000
1111
0000
1111
0000
1111
0000
1111
0000
1111
0000
1111
0000
1111
0000
1111
,
0000
1111
0000
1111
0000
1111
0000
1111
0000
1111
0000
1111
0000
1111
0000
1111
0000
1111
0000
1111
0000
1111
0000
1111
,
0000
1111
0000
1111
0000
1111
0000
1111
0000
1111
0000
1111
0000
1111
0000
1111
0000
1111
0000
1111
0000
1111
0000
1111
,
0000
1111
0000
1111
0000
1111
0000
1111
0000
1111
0000
1111
0000
1111
0000
1111
0000
1111
0000
1111
0000
1111
0000
0000
,
1111
1111
1111
1111
1111
1111
1111
1111
,
1111
0000
0000
0000
0000
0000
1111
0000
0000
0000
0000
0000
1111
0000
0000
0000
0000
0000
1111
0000
0000
0000
0000
0000
0111
0000
0000
1000
0000
0000
0000
0000
1111
0000
0000
0000
0000
0000
0000
0000
1111
0000
0000
0000
0000
0000
0000
0000
,
1111
0000
1111
0000
1111
0000
1111
0000
1111
0000
1100
0000
,
0100
0012
2203
3320
1132
0003
2001
3200
1300
0000
0012
0003
,
1111
0000
1111
0000
1100
0000
0112
0003
0210
2300
3020
0032
,
0213
2000
3302
0003
0200
2300
3002
0223
2330
3002
0223
2330
,
3220
1332
2203
3320
0030
0112
2003
3000
1020
1030
1110
2220
,
3332
0003
0021
2230
3322
2133
3001
0022
2033
3002
0023
2230
,
3302
2003
3220
0332
0223
2030
3322
2233
3302
0203
2000
3322
,
0033
0102
0213
2300
3002
0020
2033
3022
2033
3011
1000
0020
,
0032
0213
2300
3000
0022
0233
2000
3300
0001
0200
0300
0022
,
0133
2000
3020
0230
0322
2233
3320
0230
0300
1020
0030
0010
,
1000
0110
0200
2300
3022
0233
0000
2300
3000
1100
0000
0000
,
1110
1111
1111
1111
,
1111
1111
1111
1111
,
1111
1111
1111
0111
,
2200
0000
0320
0000
,
0000
0032
0000
0000
,
0000
3000
2003
0000
,
0002
0000
0000
0000
,
0000
0000
0000
0200
,
0000
0000
0000
0000
,
0000
3303
0020
0000
,
0000
0000
0000
0230
,
0000
0000
0000
0302
,
0000
0000
0000
2000
,
0000
0000
0003
0200
,
3000
2000
0000
0000
,
3020
0300
0000
0002
,
0000
0000
0200
0033
,
0000
2000
0000
0300
,
0000
0002
0000
0000
,
3023
0000
0000
0200
,
0030
2000
0300
0000
,
0000
0200
3000
0020
,
0300
0000
0002
0030
,
0020
0003
0200
0030
,
2000
0000
0000
3320
,
0000
0002
0030
0000
,
0213
2000
0000
3302
,
0020
0203
2030
0302
,
3020
2203
0332
3020
,
2203
3332
0020
2233
,
3322
2203
3332
0200
,
2003
3322
2203
3332
,
2220
0333
3022
2233
,
3302
2203
3322
2203
,
3332
2223
3332
2223
,
3330
0000
0200
0302
,
2223
3332
2203
3300
,
0000
0200
0302
2223
,
3330
0002
2223
3330
,
0102
2223
3330
1102
,
2203
3300
1102
2223
,
3330
1002
0000
2220
,
0333
3000
0000
0000
,
0000
0000
0000
0000
0000
0000
0000
0000
0100
0000
0000
0000
0000
0000
0000
0000
0000
0000
0000
0000
0000
0000
0000
0000
0000
0000
0000
0000
0000
0000
0000
0000
1111
1111
1112
0003
1111
0000
1111
0000
1112
0003
1112
0003
1111
0000
1112
0003
1112
0003
1111
0000
1111
0000
1112
0003
1111
0000
1111
0000
1112
0003
1111
0000
,
1112
0003
1112
0003
1111
0000
1112
0003
1111
0000
0000
1112
0003
1112
0003
0000
1112
0003
1111
0000
1112
0003
1112
0003
1112
0003
1111
0000
1111
0000
1112
0003
1112
0003
1112
0003
1112
0003
1112
0003
1112
0003
1112
0003
1112
0003
1112
0003
1112
0003
1112
0003
1112
2223
3331
2100
3001
0000
2220
3332
2023
3130
0001
2220
,
3330
1011
1110
0000
0001
1111
1111
1111
1111
1011
1111
1111
1011
1011
1111
1011
1111
1111
1111
1011
1011
0011
0111
1111
1111
1011
1111
1111
1111
1111
1111
1111
1111
1011
0111
0111
1111
1111
1011
0011
0011
0111
0111
0111
1011
1011
1111
1111
1011
1111
1011
1111
1111
0111
0111
1111
1111
1111
1111
1111
1111
1111
0000
1111
,
1111
1011
1111
1111
1111
0111
0011
0211
0311
0111
1111
0111
2221
3330
1111
0000
2111
3000
2111
3000
2111
3000
1111
0000
2111
3000
2111
3000
0000
1111
0000
2111
3000
2111
3000
0000
1111
0000
1111
0000
0000
1111
0000
0000
2122
3033
0000
2111
3000
0000
1111
0000
0000
2111
3000
0000
2222
3333
0000
2222
3333
2222
3333
0002
,
0003
0222
0333
0001
0000
1002
1103
0001
0100
1101
1101
0000
1111
1111
1111
1111
1111
1111
1111
1111
1111
1111
1001
1001
1111
1111
1111
1111
1111
0001
0000
0000
1111
1111
0101
0001
0000
0000
0001
0001
0001
0000
0000
0001
0001
1101
1111
0001
2021
3030
0000
2222
3333
0001
0002
0003
2221
3330
2011
3000
2220
3331
2210
3300
,
0222
0000
0000
1333
0000
0000
1102
0000
0000
2003
0000
0000
3001
0000
0000
0200
0000
0000
0322
0000
0000
2033
0000
0000
3020
0000
0000
1032
0000
0000
1113
0000
0000
0011
0000
0000
0001
0000
0000
0001
0000
0000
0001
0000
0000
2000
0000
0000
3000
0000
0000
0000
0000
0000
0000
0000
0000
1112
0000
0000
0003
0000
0000
0000
0000
0000
0211
0000
0000
0300
0000
0000
0011
0000
0000
2200
0000
0000
3322
0000
0000
0233
0000
0000
1300
0000
0000
0012
0000
0000
0103
0000
0000
2200
0000
0000
3300
0000
0000
1112
0000
0000
0013
0000
0000
0001
0000
0000
0001
0000
0000
2220
0000
0000
3330
0000
0000
0000
0000
0000
0002
0000
0000
0003
0000
0000
0001
0000
0000
2000
0000
0000
3000
0000
0000
2220
0000
0000
3330
0000
0000
0000
0000
0000
0000
0000
0000
0000
1111
0000
0000
0000
0000
0000
0000
0000
0000
0000
0000
0000
0000
0000
0000
0000
0000
0000
0000
0000
0000
0000
0000
0000
1111
0000
0000
0000
0000
0000
0000
0000
0000
0000
0000
0000
0000
0000
0000
0000
0000
0000
0000
0000
,
0000
1111
0000
0000
0000
1111
0000
0000
0000
0000
0000
1111
0000
0000
0000
0000
0000
1111
0000
0000
0000
0000
0000
1111
0000
0000
0000
0000
0000
1111
0000
0000
0000
0000
0000
1111
0000
0000
0000
0000
0000
1111
0000
0000
0000
0000
0000
1111
,
0000
0000
0000
0000
0000
1111
0000
0000
0000
0000
0000
1111
0000
0000
0000
0000
0000
1111
0000
0000
0000
0000
0000
1111
0000
0000
0000
0000
0000
0000
0000
1111
0000
0000
0000
0000
0000
0000
0000
1111
0000
0000
0000
0000
0000
0000
0000
0000
,
1111
0000
0000
0000
0000
0000
0000
0000
1111
0000
0000
0000
0000
0000
1111
0000
0000
0000
0000
0000
0000
1111
0000
0000
0000
0000
0000
1111
0000
0000
0000
0000
0000
0000
1111
0000
0000
0000
0000
0000
0000
1111
0000
0000
0000
0000
0000
0000
,
1111
0000
0000
0000
0000
0000
0000
0000
2222
3333
0000
0000
0000
0000
0000
0000
2222
0003
3330
0000
2222
0033
3300
0000
2222
0033
3300
0000
2222
0030
3303
0000
0000
2222
3333
0000
0000
2222
0300
3033
0000
0220
2002
3333
0000
0000
2222
3333
,
0000
0000
2222
0330
3003
0000
2222
0000
3333
0000
2222
0000
3333
0000
2222
0000
3333
0000
0000
2222
0000
3333
0000
2222
0000
3333
0000
0000
2222
0033
3300
0000
2222
0000
3333
0000
0000
2222
0000
3333
0000
0000
2222
0000
3333
0000
0000
0000
,
2222
0000
3333
0000
0000
2222
0000
3333
0000
0000
0000
2222
0330
3003
0000
0000
2222
0000
3333
0000
0000
0022
2200
0333
3000
0000
0000
2222
0000
3333
0000
0000
2222
0000
3333
0000
0000
0000
0000
2222
0000
3333
0000
0000
0000
2220
0002
3333
,
0000
0000
0000
2222
0000
3333
0000
0000
0000
2222
0330
3003
0000
0000
0022
2200
3333
0000
0000
0000
0000
2222
3330
0003
0000
0000
2022
0200
0333
3000
0000
0000
2222
0000
3333
0000
0000
0220
2002
3033
0300
0000
0000
2222
0000
3333
0000
0000
,
2222
0000
3333
0000
0000
2222
0000
3333
0000
0000
2222
0000
3033
0300
0000
2222
0000
3330
0003
0000
0000
2222
0000
3333
0000
0000
0022
2200
0333
3000
0000
0022
2200
0033
3300
0000
0000
0022
2003
3030
0000
0000
0200
0300
0000
0022
2200
0333
,
3000
0000
0000
0022
2200
3333
0000
0000
0022
2203
3330
0000
0000
0022
2203
3330
0000
0000
0022
2200
3333
0000
0000
0222
2003
3330
0000
0000
2222
0033
3300
0000
0000
0022
2203
3330
0000
0000
0022
2200
3333
0000
0000
0022
2200
3333
0000
0000
,
0022
2200
0333
3000
0000
0000
0022
2203
3330
0000
0002
0020
2203
3330
0000
0000
0022
2000
0033
3000
0000
0200
2000
3300
0000
0000
2222
0333
3000
0000
0022
2200
0033
3300
0000
0000
0022
2203
0330
3000
0000
0022
2200
0333
3000
0000
0022
2203
,
3330
0000
0000
0022
2203
3330
0000
0000
0022
0200
2033
3300
0000
0000
0022
2203
3330
0000
0000
0022
2203
0330
3000
0000
0022
2003
0030
3000
0000
0200
0300
0000
0000
0022
2203
3330
0000
0000
0000
0022
2200
0033
3300
0000
0000
0002
0020
2203
,
3330
0000
0000
0022
2200
0333
3000
0000
0022
2200
0033
3300
0000
0000
0222
2003
3330
0000
0000
0022
2203
3330
0000
0000
0000
2222
3333
0000
0000
0022
2200
3333
0000
0000
2222
3030
0303
0000
2222
0033
3300
2222
0003
3330
0022
0033
2222
0000
,
3333
0222
0333
0002
0003
2222
0000
3333
2222
3333
2222
3333
2021
3230
0022
2333
0222
3333
2222
3333
2222
3333
2222
3333
0222
0333
0222
0333
0222
0333
2222
0333
0220
3332
2003
3202
2003
3320
0002
2203
3332
0103
2220
3332
0103
2221
0332
0203
,
3320
0132
2223
3332
0003
0220
0332
0203
2320
3132
2203
3302
0003
2221
3332
2203
3320
0132
2203
3300
0000
2200
3302
0203
0300
0100
0220
0332
0003
0220
0332
2203
3300
0102
2223
3332
0003
0200
0302
0223
0332
0003
2200
3302
2203
3300
1100
2220
,
3332
0223
0330
0000
0000
0000
0000
0000
0200
0302
2203
3302
2203
3300
0100
2220
3330
2220
3332
0003
2000
0000
0220
3332
2203
3300
0100
2220
3332
0203
0300
0000
0000
0002
0220
0330
0223
0332
2223
3332
2223
3332
0003
0200
0302
0223
0332
0003
,
0002
0003
0202
0303
2220
3330
2220
3300
2200
0030
3320
2232
0000
3300
0003
0200
0302
2223
3332
0203
0322
0203
0332
0023
0030
0220
0332
0223
0332
2203
3322
2203
3332
0003
0000
0000
0220
0332
2223
3332
2223
3332
2203
3302
0003
0000
0002
0223
,
0332
2203
3302
2203
3300
0000
0200
0300
2220
3332
0223
0330
2220
3332
0223
0330
0000
0000
0002
0223
0332
2223
3332
0223
2330
0000
3000
0000
0000
0000
0220
0332
0223
0330
0000
0000
0000
0200
0302
0223
0332
0203
0302
0003
0020
0002
2200
3303
,
2200
3302
2203
3332
2223
3332
2203
3300
0000
0200
0300
2220
3332
2203
3302
2203
3300
0000
0000
0000
0020
0032
2223
3302
2203
3332
2223
3332
2223
3332
2203
3302
2203
3302
2003
3000
2002
3000
2003
0022
3000
2003
3002
0003
0002
0033
0220
0332
,
2203
3300
0220
0332
2223
3332
2203
3302
2003
3000
0000
2220
3332
2223
3330
0220
0330
0110
0020
0030
2220
3330
2220
0332
0200
3300
0203
0302
0200
0300
0003
0220
0330
0020
0032
2200
0003
3322
2203
3332
2223
3330
0020
0030
0000
0000
0200
0300
,
0220
0330
2220
3332
2203
3300
0102
2223
0332
0220
3330
2203
3302
0003
0000
0002
0220
0333
0000
0000
0000
0000
0000
0000
0020
0030
0020
0030
0020
0030
2220
3332
2223
3332
0003
0000
0022
2203
3330
0002
2020
3033
0002
2223
3330
0022
2203
3330
,
0022
2203
3330
0222
2333
3000
2222
3333
0022
2203
3330
2222
0333
3000
2222
0333
3000
2222
3333
0000
2222
3333
0002
2220
3333
0002
2220
3333
2222
0000
3333
2222
0000
3333
2222
0333
3020
2202
3333
2222
0000
3333
2222
0030
3303
0222
0033
2302
,
0220
3333
2222
0030
3303
2222
3333
2222
0000
3333
2222
0333
3220
2000
3332
2003
3020
1002
2200
3333
0000
2002
0000
0000
0000
0000
0000
0000
0000
0000
0000
0000
0000
0000
0000
0000
0000
3003
0000
0000
0000
2002
0000
0000
0000
0000
0000
0000
,
0000
0000
0000
0000
0000
0000
3000
0003
0000
2002
0000
0000
0000
0000
0000
0000
0000
0000
0000
0000
0000
0000
0000
0003
3000
0000
0000
0000
0000
0000
0000
0000
0000
0000
0000
0000
0000
0000
0000
0000
0000
1001
0000
0000
0000
0000
0000
0000
;
